<?xml version="1.0" standalone="no"?>
<!DOCTYPE svg PUBLIC "-//W3C//DTD SVG 1.1//EN" "http://www.w3.org/Graphics/SVG/1.1/DTD/svg11.dtd" >
<svg xmlns="http://www.w3.org/2000/svg" xmlns:xlink="http://www.w3.org/1999/xlink" version="1.1">
<metadata>
Created by FontForge 20200511 at Sun Nov 29 01:44:19 2020
 By convertio
Calton Elegance Script-Demo (c) lemonthe. 2020. All Rights Reserved
</metadata>
<defs>
<font id="CaltonEleganceScript" horiz-adv-x="0" >
  <font-face 
    font-family="Calton Elegance Script"
    font-weight="400"
    font-stretch="normal"
    units-per-em="2048"
    panose-1="2 0 6 0 0 0 0 0 0 0"
    ascent="1638"
    descent="-410"
    x-height="572"
    cap-height="1504"
    bbox="-508.444 -1049.86 3841.31 2078.13"
    underline-thickness="150"
    underline-position="-292"
    unicode-range="U+0020-E043"
  />
<missing-glyph horiz-adv-x="1024" 
d="M100 0v1434h824v-1434h-824zM150 50h724v1334h-724v-1334z" />
    <glyph glyph-name="c_c" unicode="cc" horiz-adv-x="1519" 
d="M1522 402v0q21 -1 28 -15t1 -29t-27 -17q-43 7 -87 -5q-83 -22 -162 -60q-2 -1 -5 -3q-39 -17 -79 -36l-86 -40q-10 -4 -22 -9q-58 -28 -130 -48.5t-124 7.5q-44 27 -54 74.5t4 94.5q13 45 35 88q-194 -109 -383 -190q-3 -2 -6 -3q-51 -21 -121 -45t-140 -33.5t-120 13.5
q-61 34 -71.5 96t10.5 123q64 178 211 297q46 39 106 64t121 2q22 -10 37.5 -31.5t17.5 -46.5q2 -31 -11 -59.5t-33 -49.5q-20 -18 -39.5 -11.5t-27.5 26t9 40.5q10 11 17 26t1 27q-11 10 -28 8.5t-32 -6.5q-49 -19 -90.5 -53t-76.5 -73q-47 -52 -85.5 -128.5t-40.5 -148.5
q4 -92 89 -93t211.5 53.5t255 129.5t219.5 135.5t106 71.5v0q35 35 74 62q37 25 82.5 36.5t89.5 -12.5q43 -32 39 -78.5t-38 -81.5q-20 -18 -40 -11.5t-27.5 25.5t8.5 40l4 4q8 9 22.5 25.5t24 32.5t2.5 22q-20 9 -69.5 -23.5t-102.5 -83t-85 -95.5q-18 -26 -41.5 -78
t-30.5 -102.5t26 -71.5q45 -13 134 24t195 92q98 51 187 90t148 41z" />
    <glyph glyph-name="l_l" unicode="ll" horiz-adv-x="1177" 
d="M1312 1669v0q27 -25 20 -73.5t-19 -87.5q-2 -8 -4 -14q-50 -154 -112 -303q-16 -40 -32 -81q-102 -249 -187 -505q-4 -10 -7 -22q-30 -91 -74 -237t-79 -301.5t-38.5 -276.5t45.5 -163q11 -9 21 -9q23 -1 31.5 -16.5t2 -32t-29.5 -19.5q-10 -1 -18 4t-15 12
q-18 18 -27 36q-40 102 -32 244t26 257q1 8 2 15q33 202 87 399t119 391q50 144 104 286q41 111 81 223q27 75 47 151q-99 -156 -250 -440q-120 -226 -254 -459.5t-265 -409t-242 -226.5q-75 -28 -128.5 7.5t-78.5 106.5q-29 105 -13 212q-18 11 -20 32t15 35q9 6 18 15
q37 173 106 336.5t155 317.5q5 7 11 17q30 54 82 135t110.5 143t108.5 58q4 -1 7 -1l3 -1q29 -13 34 -42t-3.5 -62t-18.5 -59q-2 -6 -3 -11q-28 -73 -62 -141q-168 -341 -392 -649q-35 -48 -77 -92q0 -3 -1 -6q-8 -41 -15.5 -102t-1 -121.5t39.5 -100.5q43 -45 95 -26
t106 75t100.5 122t78.5 116q17 27 28 42q127 186 238 382t215 395q21 42 55 107q41 81 84 163t70 131q2 2 3 5q13 23 37 59.5t54 58t59 1.5zM571 1368v0v0v0v0v0v0v0zM142 636v0q-16 -48 -31 -95q165 222 300 464q75 129 130 266q2 3 3 6q19 45 22 90h-1v0
q-35 -17 -70.5 -58.5t-58.5 -74.5q-105 -154 -182 -323q-62 -135 -112 -275z" />
    <glyph glyph-name="o_m" unicode="om" horiz-adv-x="1928" 
d="M1962 397v0q11 -12 9 -27t-15 -25l-50 -34q-121 -87 -258 -151q-61 -27 -122.5 -24.5t-105.5 60.5q-22 34 -37 70q-3 6 -6 13q-2 3 -4 8q-6 13 -15 26.5t-19 13.5q-2 0 -5 -1q-28 -10 -56 -37.5t-52 -56.5q-11 -12 -21 -23l-6 -6q-19 -23 -40 -45q-19 -22 -49 -33
q-20 -6 -39 3t-27 28q-6 14 -7 22v0q-6 61 3 119q1 14 3 27q7 66 17 132q4 22 8 45q5 30 9 59q-17 -7 -29 -20q-19 -20 -35 -42q-40 -57 -72 -121q-3 -6 -5 -11q-25 -48 -57 -107q-14 -26 -25 -48l-30 -58q-20 -40 -41 -80q-2 -4 -4 -7q-10 -18 -20 -33q0 -1 -1 -2
q-10 -17 -28 -30q-5 -3 -12 -4q-2 -1 -4 -1h-3h-2q-46 9 -30.5 80.5t55.5 175.5q41 105 68.5 210t3 177.5t-139.5 79.5q-97 4 -209.5 -5.5t-207.5 -30.5q-7 -1 -13 -3q-55 -11 -103 -35q-3 -2 -5 -4l8 -2q46 -11 86 -37q50 -36 62.5 -92t0.5 -114q-10 -55 -50.5 -126.5
t-99.5 -116t-124 -18.5q-5 2 -10 6q-44 35 -44 94t17 107q20 66 62.5 124t111.5 80q13 2 20 -5.5t5.5 -18t-12.5 -15.5q-52 -25 -84 -75.5t-47 -105.5v-3q-6 -19 -13.5 -53.5t-8 -67.5t15.5 -47v-0.5t1 -0.5v0q1 -1 2 -1q2 -1 3 -1h1q57 -8 107 67.5t71 170.5t-10 145
q-24 30 -62 48q-8 4 -17 8q-23 8 -39 26q-2 4 -2.5 6.5t-1.5 5.5q-1 25 18 37t41 19l12 4q46 16 94 25q190 37 383 31q49 0 99.5 -17t83 -74.5t26 -179t-73.5 -329.5q4 6 8 13q35 63 69 127q78 155 176 297q4 5 7 10q20 30 49 51t68 13q16 -5 27 -18t14 -29q1 -9 1.5 -16.5
t0.5 -15.5v-1q-3 -44 -10 -86q0 -4 -1 -7q-9 -56 -19 -110q-5 -32 -11 -63q-1 -11 -3 -21q-3 -20 -6 -38q9 8 18 17q14 14 30 29l5 5q26 25 61.5 52t73.5 35.5t72 -20.5q30 -35 42 -78l12 -30q5 -11 9 -23q11 -28 25 -53.5t37 -32.5q57 -9 129 31.5t140 98.5t114 103
q8 8 15 14q11 10 24.5 9.5t24.5 -11.5z" />
    <glyph glyph-name="o_n" unicode="on" horiz-adv-x="1693" 
d="M1720 388v0q6 -10 4 -20.5t-12 -16.5q-89 -53 -182 -100q-56 -28 -122.5 -49.5t-131 -17t-115.5 54.5q-30 32 -49 70.5t-33 78.5l-2 4q-2 6 -5 12q-8 22 -19 41q-2 3 -5.5 4t-6.5 -1q-35 -22 -64 -53q-5 -5 -10 -9q-83 -87 -158 -183l-38 -48q-7 -9 -13 -17
q-16 -19 -38.5 -14.5t-30.5 27.5v0q-19 74 11 150.5t73 148.5q40 68 60.5 124t-8.5 93.5t-137 49.5q-98 9 -221.5 -2t-219.5 -32q-7 -1 -13 -3q-55 -11 -103 -35q-3 -2 -5 -4l8 -2q46 -11 86 -37q50 -37 62.5 -92.5t0.5 -113.5q-10 -55 -50.5 -126.5t-99.5 -116t-124 -18.5
q-5 2 -10 6q-44 35 -44 93.5t17 107.5q20 66 62.5 124t111.5 80q13 2 20 -5.5t5.5 -18t-12.5 -15.5q-37 -20 -80 -96t-65 -154.5t5 -105.5v0v0h1q1 -1 2 -1q2 -1 3 -1l1 -1q36 -11 75 36t69 119.5t39.5 138.5t-12.5 93q-43 40 -82 58q-26 13 -36 24q-2 4 -2.5 6.5t-1.5 5.5
q-1 24 18 36.5t41 19.5l12 4q46 16 94 25q190 37 383 31h5q46 0 103 -10.5t97 -52t35 -133t-83 -253.5q62 76 133 145q4 3 8 7q28 28 67.5 54.5t77.5 21.5q23 -7 37.5 -28.5t21.5 -41.5q12 -36 23 -77q16 -73 45 -130q33 -49 108 -38t160 52.5t149 82t75 49.5q8 6 18 4.5
t17 -9.5z" />
    <glyph glyph-name="o_o" unicode="oo" horiz-adv-x="1574" 
d="M1611 502v0q2 -11 -4.5 -19.5t-17.5 -9.5q-86 -6 -226.5 -7t-262.5 4t-154 18q4 -2 12.5 -9.5t17.5 -17.5q41 -51 29.5 -110t-52.5 -110.5t-88 -80.5q-46 -31 -103 -28q-76 15 -68 91q11 62 40 116q1 2 1 3q24 47 50 93q5 9 11 19q-59 29 -74.5 56t-2.5 44t39 13l22 -8
q28 -10 60 -21q50 82 48 120t-36.5 48.5t-80.5 9.5q-229 2 -368.5 -16t-202.5 -37t-63 -21q4 -1 8 -3q46 -11 86 -36q50 -37 62.5 -93t0.5 -113q-10 -56 -50.5 -127.5t-99.5 -115.5t-124 -19l-10 6q-44 35 -44 94t17 108q20 66 62.5 124t111.5 80q13 2 20 -6t6 -18.5
t-13 -15.5q-47 -20 -91.5 -98.5t-62.5 -157.5t14 -103h0.5h0.5h1q1 -1 2 -1q1 -1 3 -1v-1q53 -4 102.5 75.5t72.5 175t-4 139.5q-24 31 -62 49q-8 4 -17 8q-23 7 -39 26q-2 3 -2.5 6t-1.5 5q-1 25 18 37.5t41 19.5l12 4q46 15 94 24q190 37 383 32q66 -1 146 -13
t118.5 -57.5t-20.5 -147.5q20 -10 97 -23t225 -11t382 38q10 1 18 -9.5t11 -20.5zM901 290v0q21 31 28.5 69.5t-27.5 60.5l-2 1q-33 14 -70 24q-33 -58 -59 -119q-7 -14 -17 -42.5t-13 -55.5t10 -37q20 -9 41 -0.5t38 21.5q43 33 71 78z" />
    <glyph glyph-name="s_s" unicode="ss" horiz-adv-x="1601" 
d="M1637 378v0q3 -13 -5.5 -23t-21.5 -11q-71 -1 -140 -17q-121 -26 -234.5 -75t-220.5 -112q1 -57 -39.5 -108t-83.5 -85q-22 -19 -59.5 -43.5t-65.5 -23.5q-3 1 -8 3q-4 2 -8 5q-37 38 0.5 87.5t100 94t101.5 66.5q5 4 9 6q-1 3 -3 6l-4 6q-1 2 -2 3q-11 14 -22 29
q-26 34 -54 68q-57 68 -102 144q-67 -32 -155 -70q-32 -15 -58 -26q-159 -71 -315 -150q14 -48 -14 -85t-69 -55q-20 -9 -43.5 -16t-44.5 0q-1 0 -2.5 1l-1.5 1q-5 3 -10 7q-24 27 -6.5 54t53 50t63.5 37q9 5 15 9q-35 47 -71 92q-35 44 -69 90q-31 39 -51 87t-4 99
q31 76 115 108.5t161 12.5q51 -17 59 -55.5t-24 -77.5q-49 -55 -113 -90q-44 -27 -91 -48q29 -43 60 -86q40 -53 75 -108q87 42 176 82q71 32 141 66q104 52 207 112q-3 11 -5 24.5t-1 25.5v2l2 10q13 63 64.5 100t111.5 46q1 1 2 1q19 3 39 3t38 -11q2 -1 3 -3q7 -5 11 -13
q5 -8 6 -16q0 -2 1 -4v-3q-5 -52 -64 -95.5t-113 -70.5q-9 -5 -16 -9q16 -40 40 -69q7 -10 15 -22q18 -25 37 -51q41 -56 78 -116v0v0q89 50 182 92q198 92 415 141q12 2 21.5 -4.5t11.5 -18.5zM58 477v0q-2 -16 0 -27.5t12 -27.5q16 7 56.5 32t83.5 56.5t66.5 59t7.5 41.5
q-28 15 -79.5 -4t-95.5 -56t-51 -74zM201 108v0q2 10 1 19q-17 -9 -46.5 -28t-53.5 -39.5t-23 -34.5q8 -21 34.5 -7t53 42t34.5 48zM863 536v0q-33 -24 -38 -60q61 41 110 93q-40 -11 -72 -33zM951 83v0q6 12 10 24q-28 -18 -77 -56.5t-85.5 -79t-25.5 -62.5q13 -15 49.5 17
t74 79t54.5 78z" />
    <glyph glyph-name="s_t" unicode="st" horiz-adv-x="1061" 
d="M1765 995v0q1 -4 1 -8v-8q-4 -18 -17.5 -22.5t-25.5 2t-13 23.5q-3 2 -7 4t-9 4q-21 7 -46 11q-50 9 -101 12q-206 12 -413 4l-128 -4q-35 -88 -106 -281t-139.5 -420t-96 -415.5t23.5 -267.5q6 -13 15.5 -22.5t23.5 -10.5q14 0 24 -9t11 -23q1 -15 -8 -25t-24 -11
q-14 0 -24 9l-8 7q-19 18 -28 36q-33 78 -32.5 198.5t18 243.5t34.5 208q86 398 226 780q-110 -5 -221 -10q-118 -182 -227 -371q-102 -176 -198 -356q-10 -19 -19 -38q28 -33 51 -70q22 -42 7 -80.5t-51 -64.5q-23 -17 -54.5 -30t-60.5 -8q-7 1 -16 9q-16 19 -9.5 49
t17.5 55q3 7 5 13q20 48 44 94q2 4 3 7q2 3 3 6q-44 47 -90 90q-17 16 -33 32l-12 12q-31 29 -56 63.5t-23 77.5q13 83 85 123.5t150 38.5q44 0 79 -23t27 -72q-9 -32 -30.5 -54.5t-45.5 -40.5q-62 -46 -130 -79h1q0 -1 1 -2q19 -20 39 -40q35 -35 67 -70q162 295 347 575
q47 73 93 146q1 2 2 3q1 2 2 3q-182 -9 -359 -19q-28 -1 -56 -3q-65 -7 -131 -4h-1q-7 1 -16 4q-3 1 -6 3l-4 2q-4 2 -7 6q-4 5 -6 12q-3 10 1 19q9 19 26 17.5t24 -16.5q35 -9 72 -12q155 -11 311 0q80 4 163 9q103 161 208 319q3 4 5 8q83 125 174 244q1 2 4 5
q10 14 32.5 39.5t48 40.5t46.5 -2q24 -33 18.5 -78t-18.5 -84l-4 -14q-50 -155 -112 -304q-16 -40 -31 -80q-15 -36 -30 -73q114 7 221 12q157 9 313 7q67 0 133 -10h1q30 -4 58 -19q9 -5 17 -17q3 -3 4 -7q2 -4 3 -8zM123 1021v0v0h1l-2 2h-2v0v0v0q1 0 1 -1zM249 572v0
v-0.5v-0.5v0v0v1.5t0 -0.5zM285 615v0q-29 24 -85 9.5t-103 -55t-48 -92.5q1 -14 5 -22.5t12 -18.5q2 -3 5 -6q36 16 93 50.5t96.5 71.5t24.5 63zM254 137v0q-15 21 -32 42q-7 -17 -23 -56t-30 -76.5t-17 -49.5q24 6 52.5 30t45.5 54.5t4 55.5zM964 1141v0q17 48 35 95
q55 141 98 284q2 8 4 15q4 15 7 31q-4 -5 -9 -11q-34 -37 -65 -77q-64 -80 -123 -162q-105 -147 -204 -298q64 4 129 8q44 3 88 5z" />
    <glyph glyph-name="t_t" unicode="tt" horiz-adv-x="969" 
d="M1672 1018v0q13 -10 16 -25.5t-4.5 -27t-27.5 -11.5q-20 5 -23 24q-14 8 -31 12h-1q-30 8 -63 12q-66 8 -133 11q-241 11 -482 5q-6 -16 -13 -35q-43 -115 -111 -312.5t-126.5 -415t-73 -391t49.5 -239.5q8 -11 18 -20q11 -9 24 -12q13 -4 19.5 -15t3.5 -25
q-4 -13 -15 -19.5t-25 -3.5q-14 4 -21 17q-11 16 -19 31q-9 16 -15 32q-2 4 -3 8q-2 4 -3 7t-2 5l-8 26l-3 7q-24 96 -21 195q2 218 49 430q80 370 202 728q-53 -1 -106 -3q-47 -96 -93 -194q-83 -175 -171.5 -347.5t-195.5 -334.5q-2 -3 -5 -6q-27 -40 -66 -81t-87 -51
q-22 -3 -41.5 7t-31.5 28q-30 49 -36 128t1 160t16 138q13 83 33 165q21 79 45 158q-8 21 6 40q5 6 9 12l3 3q25 79 54 157q-193 -8 -380 -16q-22 -1 -43 -2q-47 -3 -93 -5q-14 0 -28 -1q-48 -3 -97 3v0q-5 1 -14 5h-1q-2 2 -4.5 4t-6.5 6q-7 10 -5 22q0 4 1 7q9 18 25 17.5
t25 -14.5q16 -4 34 -7q2 0 5 -1q100 -11 201 -11q189 1 387 9q55 148 122 292q2 3 4 7q23 51 65 131t91 148t94 86q17 5 34.5 0t25.5 -22q3 -8 3 -12q1 -7 1 -11v0q-4 -28 -14 -53q-1 -4 -3 -9q-32 -85 -71 -167q-92 -196 -200 -383l170 8q101 5 200 10l50 96q9 17 18 33
q66 132 153 253q2 2 5 7q11 15 30.5 35.5t44.5 31.5t50 -3q9 -9 14 -19q6 -15 5 -31q-4 -53 -22 -100q-4 -9 -7 -19q-20 -59 -42 -117q-29 -78 -58 -157q236 11 473 10q68 0 137 -5q5 -1 10 -1q49 -3 97 -19q10 -4 22 -13zM458 1463v0q-102 -174 -180 -361q34 60 67 120
q74 139 139 282q-13 -20 -26 -41zM221 168v0q104 154 191.5 318.5t169.5 331.5q48 97 98 194q-183 -5 -369 -12q-38 -64 -79 -128q-33 -50 -72 -99q-3 -5 -7 -8q-34 -103 -60 -208q-37 -158 -41 -320q-1 -54 6 -105q3 -26 11 -48q3 -9 8 -16.5t12 -12.5q20 -5 46.5 17t50 51
t35.5 45zM737 1038v0l102 4q32 97 66 192q20 58 38 116q3 8 6 17q4 15 8 29q1 5 -1.5 8t-7 3.5t-7.5 -3.5q-51 -68 -110 -180.5t-93 -181.5q0 -2 -1 -4z" />
    <glyph glyph-name="o_r" unicode="or" horiz-adv-x="1641" 
d="M1676 382v0q2 -11 -4.5 -18.5t-17.5 -8.5h-28q-72 -2 -144 0h-8q-54 2 -116.5 9t-117.5 29.5t-87 69.5q-23 43 -26 90q-1 4 -1 7q-1 16 -6 28q-1 2 -2 3v0v0v0v0h-2v0h-3.5h-4.5q-40 -15 -86 -95.5t-85 -170.5t-56 -135q-30 -80 -58 -160q-9 -21 -27.5 -25t-36 6
t-23.5 31q-20 71 2.5 159t57.5 178q37 93 55 171.5t-17 126.5t-156 49q-105 0 -272 -18t-265 -61l8 -2q46 -11 86 -37q50 -37 62.5 -92.5t0.5 -113.5q-10 -55 -50.5 -126.5t-99.5 -116t-124 -18.5q-5 2 -10 6q-44 35 -44 93.5t17 107.5q20 66 62.5 124t111.5 80
q13 2 20 -5.5t5.5 -18t-12.5 -15.5q-52 -26 -96.5 -103t-61.5 -153t12 -98h0.5h0.5l1 -1h2q1 -1 3 -2v0q35 -10 74 36t70.5 116.5t42.5 136t-10 96.5q-25 30 -62 48q-8 4 -17 8q-23 8 -39 26q-2 4 -2.5 6.5t-1.5 5.5q-1 25 18 37t41 19l12 4q46 16 94 25q190 37 383 31
q66 1 142 -22t112 -103.5t-16 -251.5v1q1 1 1 2q3 5 6 12q22 45 56 105.5t77.5 106.5t91.5 49q42 -2 56.5 -28.5t12.5 -64.5v-15q-1 -38 5 -72q18 -62 101 -77.5t182 -6.5t166 20q10 1 19 3q10 0 17.5 -8.5t8.5 -18.5z" />
    <glyph glyph-name="l_t" unicode="lt" horiz-adv-x="1002" 
d="M1832 987v0q1 -4 1 -8v-9q-4 -17 -17.5 -21.5t-25.5 2t-14 23.5q-2 2 -6.5 4t-8.5 4q-21 7 -46 11q-50 9 -101 12q-206 12 -414 4q-114 -3 -232 -8q-41 -69 -85 -136q-33 -51 -72 -100q-3 -4 -7 -7q-2 -8 -8 -24q-22 -65 -66 -208.5t-83.5 -315.5t-47.5 -321.5t40 -224.5
q12 -29 35 -50.5t55 -22.5q20 -2 27.5 -16.5t0.5 -29t-27 -16.5q-9 0 -17 4q-76 40 -101 120q-24 70 -28 143q-7 144 12 286q30 248 91 490q-63 -105 -130 -207q-3 -5 -6 -9q-42 -64 -105 -147t-136.5 -147t-149.5 -72q-75 0 -119 58.5t-52 128.5q-8 74 1 152q-7 4 -11 10
q-11 14 -8.5 30.5t16.5 26.5q7 6 15 14q36 164 94 307q51 126 113 246q-12 0 -25 1h-2q-6 1 -16 4l-6 3q-2 1 -3 2q-4 2 -7 6q-4 5 -6 12q-3 10 0 19q10 19 27 17.5t24 -16.5q17 -5 35 -8q68 128 150 248q52 79 125 142q22 19 53 25q26 3 43.5 -11.5t19.5 -39.5
q2 -62 -35.5 -150.5t-71.5 -154.5q-5 -10 -9 -19l-26 -48q50 2 98 4q120 7 248 14q31 84 66 166q26 62 76 166t109 197.5t114 121.5q17 8 37.5 4.5t29.5 -23.5q3 -7 4 -12q1 -7 0 -11v0q-3 -28 -13 -53q-2 -4 -3 -9q-33 -85 -72 -167q-89 -189 -193 -370q167 10 323 18
q156 9 313 7q66 0 133 -10h1q29 -4 58 -19q8 -5 17 -17q2 -3 4 -7t3 -8zM1134 1494v0q-29 -45 -55 -92q-83 -150 -149 -307q33 60 65 120q74 137 139 279zM563 1358v0q-43 -19 -94.5 -84.5t-95.5 -139.5t-66 -118q-5 -9 -10 -19q55 -4 110 -3q67 119 110 216t46 148z
M395 972v0h-9q-8 -1 -15 -1q-28 -1 -56 -4l-34 -2q-90 -177 -174 -434q144 190 288 441zM71 69v0q36 -85 105 -59t153.5 122.5t168 223t148.5 242.5t95 182q-4 19 8 35q5 6 10 13l2 2q26 83 57 164q-176 -8 -348 -17q-97 -180 -208 -351q-81 -129 -179 -246q-10 -11 -20 -21
q-14 -79 -12.5 -160.5t20.5 -129.5z" />
    <glyph glyph-name="o_f" unicode="of" horiz-adv-x="1371" 
d="M1378 409v0q14 -1 22.5 -10.5t8.5 -23.5q-2 -15 -14 -24t-27 -5q-22 4 -47 0q-81 -14 -159 -45q-105 -41 -205 -93q-76 -39 -150 -81q-22 -112 -40 -217q48 -70 69 -155q15 -53 20.5 -137.5t-13 -160t-76.5 -100.5q-36 -8 -56 13t-28.5 54t-10.5 62q-6 102 3.5 204
t23.5 204q1 4 1 8q0 2 1 4v3q-58 58 -150 60q-26 3 -32 24.5t16 36.5q102 56 205 110q38 203 89 404q-60 -37 -126 -63q-206 -78 -409 -2q2 -34 -5 -67q-7 -57 -48.5 -132t-103 -121t-127.5 -16h-1q-2 1 -4 3q-45 35 -45 94.5t17 109.5q21 65 63.5 122.5t110.5 79.5q5 1 9 0
q-8 6 -16 13q-9 7 -19 14q-23 19 -23.5 42t26 30t85.5 -24q65 -41 77 -115q143 -79 281 -57t284 191q6 22 21 71t32 103t30 88q3 7 7 16q13 37 35.5 77.5t54.5 53.5q24 8 44 -4.5t25 -35.5q10 -66 -25.5 -163.5t-70.5 -156.5q-35 -67 -93 -120v0h-1q-51 -186 -95 -394
q35 18 70 35q127 65 257 123q80 37 164 61q33 10 68 9zM218 424v0q10 50 -1 91q-6 4 -12 7q-16 10 -31 20q4 -8 2 -16.5t-12 -13.5q-63 -30 -98.5 -98.5t-41.5 -137.5q-2 -18 0.5 -39t14.5 -33v0l1 -1l2 -1v0q2 -1 3 -1q21 -4 40 8.5t34 28.5q75 80 99 186zM814 -444v0
q5 67 -9 142t-49 140q-25 -162 -28.5 -277t22.5 -152q0 -1 3 0q31 17 44.5 64t16.5 83zM711 -29v0q8 55 18 109q-49 -30 -96 -62q43 -18 78 -47z" />
    <glyph glyph-name="a.titl" unicode="__a" horiz-adv-x="3433" 
d="M3467 392v0q5 -13 -1 -25q-5 -12 -19 -16q-28 -7 -57 -15q-68 -18 -137 -34q-2 -1 -4 -1q-3 -1 -5 -2q-65 -15 -132 -25t-134 -4q-98 14 -123 77q-26 63 -9 151v0v0v0h-1q-15 -11 -30 -24v0v0v0v0q4 -6 8 -11q10 -16 7 -33q-2 -17 -16 -28q-16 -11 -34 -8q-17 3 -28 18v0
v0h-0.5h-0.5q-36 -38 -71 -76q-59 -64 -122 -127q-5 -4 -11 -10q-30 -30 -69 -53q-39 -24 -78 -4v0h-1l-6 4q-32 25 -39 64t1 75q24 98 87 173q-179 -73 -434 -156.5t-542 -151t-561.5 -93t-492 16.5t-334.5 177q-17 21 -43 62t-34 79.5t28 50.5q17 5 31 4t17 -17
q30 -189 170.5 -275.5t353.5 -96.5t462 32.5t496 112.5t456 142.5t341 122.5q22 8 41 15q76 29 150 63v1q37 19 78 24q73 10 140 -42v0v0v0v0q27 24 61 42q18 9 40 10q22 0 39 -16q14 -17 13 -37q0 -19 -5 -38q0 -1 -1 -2v-2q-2 -10 -5 -21q-12 -41 -15 -87q-3 -47 27 -75
q52 -32 136 -16q85 16 155 40q19 6 34 10q94 29 183 70q12 5 23 1t17 -16zM2698 467v0v0v0v0v1v0q-53 26 -114 -23q-61 -50 -104 -120q-42 -69 -40 -102v0v0v0q32 20 61 47q52 49 103 102l4 4q1 2 3 4v0h1q42 44 86 87z" />
    <glyph glyph-name="b.titl" unicode="__b" horiz-adv-x="3555" 
d="M3599 393v0q7 -16 0 -32q-8 -15 -30 -17q-90 20 -182 22q-130 1 -249 -48q-18 -92 -49 -178q-62 -176 -166 -330q-21 -32 -57 -70q-35 -38 -76 -54q-42 -16 -82 18q-2 2 -3 4q-2 2 -3 4q-23 42 -10 104q12 62 40 123q28 60 51 98q53 89 123 166q70 76 162 126q6 35 7 78
q1 42 -16 72l-7 7q-1 0 -3 1v0q-2 1 -3 2q-2 0 -3 1v0q-2 1 -3 1v0q-53 10 -112 -49q-60 -59 -110 -136t-74 -121q-44 -77 -82 -158q-10 -19 -28 -22q-18 -2 -32 8q-15 10 -16 32v0q8 203 46 403q2 11 4 21l2 8q-145 -94 -408.5 -185.5t-583.5 -159.5t-635.5 -90t-564 25
t-368.5 184q-17 21 -43 62.5t-34 80t28 50.5q17 5 31 3.5t17 -16.5q31 -180 191.5 -271t406.5 -110.5t531.5 17.5t566.5 113t513 175.5t369 205.5q32 142 73 281q46 155 109 305q46 114 113 218q24 37 56 71q32 35 75 49q28 7 51 -3t32 -37q15 -43 2 -106t-36.5 -124.5
t-39.5 -97.5q-6 -13 -9 -20q-84 -193 -202 -359.5t-168 -211.5q-31 -155 -42 -313q35 63 97 154q61 91 139 154q77 62 159 40l7 -3q11 -5 21 -11q42 -33 50 -83q8 -51 2 -100q103 37 211 45t215 2q22 -3 29 -18zM2782 826v0q-11 -41 -25.5 -98t-24.5 -99
q134 167 218.5 337.5t115.5 254.5q9 21 14 32q37 82 53 143t-7 71q-39 6 -102 -91q-64 -96 -130 -246t-112 -304zM3024 162v0q19 56 33 113q-75 -48 -132 -117q-57 -68 -100 -145q-31 -56 -65 -144q-34 -87 -30 -150q2 -8 4 -10v0v0v-1v0v0v0v0v0v0h1v0q-1 0 0 0v0v0v0v0v0
q2 -2 4 -2q43 -4 102 85t111 200q51 110 72 171z" />
    <glyph glyph-name="c.titl" unicode="__c" horiz-adv-x="3319" 
d="M3361 386v0q5 -16 -12 -30q-98 -65 -204 -117q-105 -51 -219 -82q-92 -27 -189 -27q-89 2 -129 51t-20 137q22 83 72 152q-175 -72 -449.5 -157t-594 -155t-627.5 -98.5t-549.5 12.5t-361.5 179q-17 21 -43 62.5t-34 80t28 50.5q17 5 31 3.5t17 -16.5q32 -184 176 -273
t365.5 -103.5t484 24t530.5 109t507 153t412.5 155t245.5 114.5q13 9 27 16l1 1q22 12 47 20q51 18 101 -8q45 -31 41 -78q-3 -48 -38 -83q-20 -18 -40 -11q-19 6 -27 25t8 40l1 1q0 1 1 1q6 7 21 25t24 36t0 27q-25 13 -70 -16q-46 -30 -95 -83q-50 -54 -87 -112
q-17 -25 -40 -69q-22 -43 -35 -87q-13 -45 -3 -73q26 -48 119 -32q92 16 208 66q115 50 212 105t133 85q18 13 34 5t20 -25z" />
    <glyph glyph-name="d.titl" unicode="__d" horiz-adv-x="3245" 
d="M77 431v0q32 -186 162.5 -278.5t328.5 -113.5q-159 16 -285 67t-205 145q-17 21 -43 62.5t-34 80t28 50.5q17 5 31 3.5t17 -16.5zM695 31v0q-66 1 -127 8q62 -6 127 -8zM3281 1414v0q10 -18 4 -49q-5 -30 -13 -57q-3 -10 -5 -17q-51 -192 -157 -469q-67 -179 -130 -365
q-62 -186 -100 -356q-37 -170 -27 -300q11 -131 90 -199q11 -11 12 -26q1 -14 -10 -26q-13 -14 -31 -12q-19 3 -28 20q-36 64 -44 139t-6 147q6 244 71 479q84 298 181 592l36 110q46 140 87 281q1 5 0 6q-2 2 -5 1q-2 -1 -4 -3q-13 -22 -26 -45q-111 -204 -213 -414
q-82 -168 -169 -334q31 -30 53 -65q14 -26 2 -46q-12 -19 -35 -22t-41 19q-12 18 -24 33q-1 -3 -2 -5l-2 -4q-5 -8 -9 -16q-83 -154 -188 -295q-34 -44 -82 -86q-49 -41 -108 -31q-4 1 -9 3q-54 27 -56 91q-1 63 22 132q24 68 46 109q18 35 39 67q-195 -79 -484.5 -167
t-610.5 -148t-610 -55q253 -2 539.5 58t555 148.5t466 172t272.5 128.5q6 5 13 8v1h1v0h1q45 26 100 32q45 3 84 -15q95 173 187 349q69 132 139 263q49 92 106 180q0 1 1 2t1 2q19 29 45 55q1 1 1 2q9 8 22 14q14 6 29 2q15 -5 23 -19zM2381 84v0v0v0v0v0v0v0v0v0z
M2664 451v0q9 17 19 34q-47 14 -103 -34t-105 -123q-49 -76 -76 -145t-15 -98q40 14 92 79q51 64 99 140q48 77 77 128q7 11 12 19z" />
    <glyph glyph-name="e.titl" unicode="__e" horiz-adv-x="3301" 
d="M3340 396v0q9 -14 5 -29t-19 -22q-20 -9 -45 -21q-99 -47 -237 -103t-270 -84q-132 -27 -211 12q-7 4 -13 8h-1q-62 48 -61 124q2 77 47 151q6 12 14 23q-181 -74 -447 -157t-568.5 -149.5t-592.5 -91.5t-518 17t-345 177q-17 21 -43 62.5t-34 80t28 50.5q17 5 31 3.5
t17 -16.5q33 -207 210 -292.5t442.5 -81.5t566 64.5t580 145.5t484.5 163.5t281 117.5q6 3 11 6q8 5 16 9v0v0q2 1 3 1q54 25 108 9v0v0q4 -2 9 -4q1 0 2 -1q1 0 2 -1q3 -1 4 -2l1 -1q20 -11 28 -33q8 -21 4 -42q-8 -46 -37 -86q-28 -39 -64 -67q-49 -41 -113 -52
q-32 -5 -64 4q-3 -25 9 -63q12 -39 43 -58q62 -29 152 -10t181 60q91 40 157 74q3 2 5 3l16 8q92 46 178 103q12 8 26 5q14 -2 22 -14zM2747 497v0q-26 5 -51 -9q-26 -14 -46 -32q-39 -33 -73 -92q38 -3 72 18q33 21 59 50q27 29 39 65z" />
    <glyph glyph-name="f.titl" unicode="__f" horiz-adv-x="3253" 
d="M3289 399v0q9 -10 9 -24q-1 -15 -14 -24q-12 -9 -27 -5q-22 4 -47 0q-81 -14 -159 -45q-105 -41 -205 -93q-74 -38 -147 -80q-2 -1 -3 -5q-22 -108 -40 -211q0 -2 2 -5q47 -68 67 -152q15 -52 20 -137q6 -84 -13 -160q-18 -75 -75 -101h-1v0q-36 -7 -56 13q-20 21 -28 54
q-9 32 -11 60q-6 102 3 203q9 100 23 200q1 3 1 5v4q1 2 1 4v3l1 1v2q0 3 -2 6q-58 55 -148 57q-26 3 -32 24q-6 22 16 37q101 55 202 108q3 2 3 5q38 203 89 404q-164 -104 -441.5 -205t-607 -176.5t-650 -103.5t-571 13.5t-370.5 175.5q-18 20 -43.5 61.5t-33 80.5
t27.5 51q17 5 31 3.5t17 -16.5q39 -205 221.5 -290.5t454 -81.5t578.5 68.5t596.5 160t507 192t309.5 165.5q7 25 14 51q4 13 9 30q22 79 58 177q36 99 78 141q7 6 18 10q11 5 22 4q26 -1 41 -21q14 -20 15 -43q1 -68 -24 -144q-44 -120 -96 -186t-70 -80l-4 -3
q-50 -182 -94 -386q-1 -4 2 -7q4 -2 8 -1q28 15 57 29q127 65 257 123q80 37 164 61q33 10 68 9q14 -1 22 -10zM2602 -17v0q6 41 13 81q1 5 -3 7q-3 3 -7 1q-37 -23 -73 -47q-3 -3 -3 -7q1 -3 5 -5q30 -14 57 -34q3 -3 6 -1q4 1 5 5zM2703 -444v0q11 131 -48 263q-3 4 -8 3
q-4 0 -6 -5q-22 -154 -24 -263q-3 -109 22 -145q0 -1 3 0q31 17 44 64q14 47 17 83z" />
    <glyph glyph-name="g.titl" unicode="__g" horiz-adv-x="3339" 
d="M3373 394v0q7 -17 0 -32q-8 -16 -31 -18h-1q-79 17 -159 3q-94 -18 -175 -69q-81 -50 -146 -119q-1 -1 -1 -2q-64 -252 -143 -499q-79 -248 -182 -486q-34 -77 -79 -150q-17 -28 -44 -54q-26 -25 -64 -15q-28 13 -35 42t-6 57q4 86 23 169q59 261 178 500
q118 240 301 436q1 1 1 2q14 51 38 157q23 107 34 209t-12 141v0h-1v0v0v0q0 1 -1 1h-1v0q-24 4 -54 -18q-31 -22 -59 -53q-29 -30 -46 -50q-1 -2 -1 -4t2 -3q39 -19 72 -43q20 -17 17 -38q-4 -20 -21 -30q-18 -11 -41 2q-40 27 -84 43q-3 1 -6 -1q-32 -39 -71 -85
q-38 -45 -71 -83q-3 -3 -5 -6l-2 -2q-51 -60 -109 -115l-1 -1q-19 -17 -41 -32q-23 -15 -50 -17q-6 -1 -13 0q-55 16 -59 69q-5 53 11 98q28 88 87 157q-179 -73 -422.5 -156t-512.5 -150t-525.5 -92t-462 17t-321.5 177q-17 21 -43 62.5t-34 80t28 50.5q17 5 31 3.5
t17 -16.5q32 -188 168 -275t340.5 -97.5t443 31t476 111.5t439 144.5t331.5 129.5t154 67q92 47 202 24q3 0 5 2q46 44 97 84q32 27 73 48q18 10 42 14q23 4 44 -8q3 -2 7 -5q35 -36 32 -116q-2 -79 -13 -138q-1 -9 -2 -17q-16 -98 -38 -196q-1 -3 2 -4q2 -2 5 0
q95 86 212 136t247 46q22 -2 29 -18zM2291 217v0v0v0v0v0v0zM2550 481v0q2 2 1 5t-4 2q-57 -6 -102 -38q-46 -32 -78 -80q-43 -60 -56 -132q-1 -3 2 -4q2 -2 5 0q34 28 66 62q0 1 1 2q1 0 2 1q52 56 103 114l60 68v0v0zM2782 52v0q0 3 -1 5q-2 1 -4 1t-3 -2
q-91 -124 -158 -262t-121 -281q-59 -151 -95 -307q-19 -80 -22 -160q0 -4 3 -5t5 2q48 67 82 144q3 7 6 13q102 221 181 453q70 198 127 399z" />
    <glyph glyph-name="h.titl" unicode="__h" horiz-adv-x="3608" 
d="M3655 388v0q3 -13 -4 -25q-11 -14 -25 -24l-1 -1l-2 -2q-78 -57 -164 -98q-96 -49 -198 -83q-34 -12 -70 -15q-37 -4 -72 10q-39 19 -52 58t-16 81q-4 34 -12 60q-7 26 -29 33q-33 1 -71 -39t-73 -94q-36 -54 -60 -96q-11 -19 -19 -31l-66 -113v0v-1v0v0h-1v-0.5v-0.5
q-9 -15 -26 -18t-32 7v0q-41 35 -42 123q-1 87 17 185t34 162q0 3 4 17q-157 -110 -427 -209t-592.5 -167.5t-638.5 -86t-565.5 35.5t-373.5 195q-17 21 -43 62.5t-34 80t28 50.5q17 5 30 3.5t18 -16.5q64 -198 250 -291.5t448.5 -105.5t555 36.5t568.5 136t490 192.5
t319 207q22 83 38 136q33 108 81 239q48 132 105 251q56 120 115 193q60 72 116 62q2 -1 4 -1q34 -15 33 -54q0 -39 -9 -72v-2l-2 -8q-32 -124 -82 -242q-49 -118 -108 -232q-28 -54 -78.5 -130t-99 -139t-68.5 -78q-24 -99 -41 -199q-17 -101 -16 -201q2 4 5 8q2 5 5 9
q29 52 72 118t94 118q51 53 103 66q45 9 78 -14q32 -23 42 -67q6 -32 5 -78q-1 -35 2 -67t17 -51q26 -25 110 2q84 28 210 102q67 38 125 89q19 17 30 35q8 12 21 15t26 -5q11 -8 14 -21zM2838 834v0q-26 -82 -49 -164q88 111 154 236q80 146 140 301q31 77 51 156q1 1 1 2
v0q9 33 9 67q-34 -13 -65 -56q-30 -43 -49 -78q-2 -2 -3 -4q-115 -221 -189 -460zM2710 60v0v0v0v0v0v0z" />
    <glyph glyph-name="i.titl" unicode="__i" horiz-adv-x="3370" 
d="M3407 394v0q6 -12 2 -24q-5 -12 -17 -17q-257 -102 -522 -176q-16 -3 -32 -7q-54 -14 -109 -21q-56 -6 -98 15q-42 22 -54 91q-10 95 26 184q2 6 4 13q-173 -72 -442 -155t-580.5 -151t-612 -93.5t-537.5 17.5t-357 181q-17 21 -43 62t-34 79.5t28 50.5q17 5 31 4t17 -17
q33 -188 181.5 -275.5t374 -99.5t488.5 28.5t524.5 109t482 141.5t361 127t162.5 64h1v1v0h2q13 5 32 -2q15 -9 20 -25q4 -16 -4 -31q-31 -55 -44 -142q-14 -87 17 -145q28 -23 97 -10q69 14 150 44t142 56q36 15 56 23q64 23 126 51q62 27 121 60q11 6 22 3t18 -14z
M2692 621v0q-26 3 -34 37q-9 34 0 68q8 34 34 37q25 -3 34 -37q8 -34 0 -68q-9 -34 -34 -37z" />
    <glyph glyph-name="j.titl" unicode="__j" horiz-adv-x="3093" 
d="M3132 380v0q0 -15 -9 -25t-23 -12q-109 9 -215 -20q-108 -30 -201 -94q-93 -65 -166 -150q-53 -237 -113 -472q-61 -235 -140 -465q-18 -52 -42 -103q-2 -5 -5 -10q-11 -26 -30 -50t-48 -19q-3 1 -5 2q-10 4 -17 13q-6 8 -9 16q-17 56 -12 112v1v6q2 57 10 112
q33 223 116 437q82 215 219 396q3 13 5 27q1 3 1 5q44 202 66 406q-163 -70 -419 -158t-553.5 -163.5t-587.5 -108.5t-521.5 6.5t-354.5 181.5q-17 21 -43 62.5t-34 80t28 50.5q17 5 31 3.5t17 -16.5q33 -189 175 -276.5t356.5 -97.5t465 33t499 115.5t459 150t345.5 136.5
t158 76h1v0v0v1q1 0 3 1q10 6 22 6q18 -2 28 -14q11 -13 10 -30q-6 -57 -15 -111q-21 -131 -49 -261q233 229 559 252q15 1 26 -8q10 -9 12 -24zM2159 -993v0v0v0v0zM2409 -103v0q6 26 11 52q-211 -338 -264 -734v-3v-4q-16 -94 -3 -187q34 59 55 125q2 6 4 11q1 2 1 4
q117 362 196 736zM2567 648v0q-16 0 -27 21q-12 21 -12 51q6 70 39 70t39 -70q0 -30 -11 -51q-12 -21 -28 -21z" />
    <glyph glyph-name="k.titl" unicode="__k" horiz-adv-x="3617" 
d="M3648 367v0q8 -17 -1 -35q-8 -15 -22 -24q-13 -9 -27 -15q-64 -29 -224 -58q-160 -30 -333 -46t-276 -4q-12 -60 -22 -120q-19 -121 -29 -243q-11 -123 0 -245q0 -18 -13 -26q-13 -7 -26 -2q-14 5 -16 24q-2 127 11 250q13 124 33 248q10 62 21 123q-8 3 -14 6
q-32 21 -21 52t30 58q3 4 6 7q15 22 31 42q13 68 29 136q-136 -58 -357 -130t-491.5 -141t-554 -117t-543.5 -57.5t-459 36.5t-302 165q-17 21 -43 62.5t-34 80t28 50.5q17 5 30.5 3.5t17.5 -16.5q41 -182 198.5 -267t391.5 -96t506.5 29.5t545 110t505 146t387 137.5
t192.5 84v0q55 234 128 463q46 150 113 293q0 2 1 3q1 2 2 5q23 48 60 99t92 56q31 -3 41 -25t0 -44t-41 -25l2 1h-2q-1 -1 -3 -2q-29 -21 -50 -55q-63 -101 -108 -214q-137 -340 -221 -699q0 1 1 1v1h1q66 75 139 142q2 2 4 3q1 2 3 3q53 52 120 87q22 10 47 9
q26 -1 44 -22q13 -21 5 -38q-7 -18 -25 -25q-19 -6 -38 8q-62 -22 -160 -114q-97 -93 -171 -187q-10 -49 -19 -98q98 -10 271 15q172 25 332 65q159 41 217 78q3 11 11 18q9 7 20 7q21 -1 29 -17z" />
    <glyph glyph-name="l.titl" unicode="__l" horiz-adv-x="3370" 
d="M3415 378v0q1 -14 -9 -25q-74 -70 -182 -157q-108 -86 -225 -146q-118 -61 -222 -56q-85 8 -134 78q-36 60 -43 129q-4 25 -3 59.5t3 67.5q-586 -293 -1075 -428.5t-842 -120t-532 176.5t-146 462q3 10 23 11.5t39.5 -5t20.5 -17.5q-15 -317 159 -471.5t510 -151t807 163
t1051 471.5q43 200 126 386t189 360l1 1q5 8 12 19q26 43 67 101q41 57 87 100q47 43 89 42q23 -3 36 -20q12 -17 12 -39q0 -33 -9 -64q-34 -109 -87 -210q-150 -300 -342 -575q-32 -47 -69 -89q-24 -28 -51 -62q-12 -61 -15 -125q-4 -64 17 -122q47 -113 133 -115t184 59
q97 60 177 134q81 74 116 112q38 39 70 83q9 10 21 12t23 -6q12 -9 13 -23zM2752 638v0q-8 -23 -18.5 -56.5t-19.5 -61.5q-2 -8 -4 -14q103 140 198.5 301t174.5 316q25 49 47 98q23 50 37 100q8 24 8 47q-37 -17 -75 -62q-37 -44 -61 -80q-92 -136 -162 -285
q-70 -148 -125 -303z" />
    <glyph glyph-name="m.titl" unicode="__m" horiz-adv-x="3800" 
d="M3832 400v0q11 -12 9 -27q-1 -16 -15 -25q-26 -17 -51 -35q-63 -43 -128 -83q-64 -40 -135 -70q-47 -20 -100 -22t-95 33q-38 36 -57 82q-4 8 -7 15q0 1 -1 3q-5 12 -11 23q0 1 -1 2l-2 4q-9 20 -23 29q-1 1 -3 1q-26 -2 -63 -38q-36 -36 -65 -71q-13 -15 -22 -24
q-6 -7 -11 -13q-24 -30 -58 -51q-16 -9 -36 -7q-20 3 -33 18q-8 10 -11 17q-5 13 -6 21q-4 39 -1 75v2t1 2q3 47 9 92q7 62 18 122q6 37 11 74q1 5 -3 7q-3 2 -7 0v0v0q-16 -10 -27 -24q-2 -4 -5 -7q-13 -15 -24 -31q-2 -2 -3 -4q-39 -58 -69 -120q-10 -18 -19 -36
q-11 -20 -24 -45q-33 -62 -60 -114q-8 -16 -16 -31q-12 -25 -25 -49q-1 -2 -2 -3v-1q-15 -29 -33 -57q-6 -9 -14 -18t-20 -14v0v0q-1 0 -3 -1q-2 0 -4 -1h-9q-2 0 -5 1t-5 2q-6 3 -10 7q-5 4 -7 9v0q-25 63 -11 167q14 105 31 176v2q1 2 1 4q19 86 48 170
q-164 -71 -430.5 -163.5t-579.5 -174.5t-618.5 -121.5t-547.5 -4.5t-366 177q-17 21 -43 62.5t-34 80t28 50.5q17 5 31 3.5t17 -16.5q32 -196 184 -280.5t382 -85.5t498.5 54.5t534 140.5t488 171t361 146.5t151.5 67.5h1v0q9 7 22 8q21 2 36 -16q10 -13 9 -29
q-1 -15 -12 -27v0l-1 -1v0l-1 -1q-28 -58 -44 -122q-4 -12 -8 -23v-1q-24 -85 -43 -172q-17 -74 -25 -148v1q3 4 6 9q22 37 44 76q23 44 47 89q75 148 168 286q5 6 9 12l6 8v0q16 24 41 45q24 21 57 22q9 0 19 -2q27 -8 38 -35q3 -10 3 -15v0h1q3 -41 -3 -78q-1 -4 -1 -8
q-1 -3 -1 -7q-6 -40 -13 -79q-1 -6 -2 -11q-3 -18 -7 -44q-5 -26 -8 -44q-2 -14 -5 -28l-6 -36q1 -1 2 -1l1 -1h1h1q0 -1 1 -1v0v0v0v0h1v-1h1l1 -1h1l1 -1h1q2 1 4 3q23 24 48 46q26 25 61 48q35 24 72 29q37 4 68 -30q23 -32 34 -69l8 -20q5 -12 10 -27q9 -27 21 -52
q13 -25 35 -34q60 -15 139 29t152 106q73 63 116 105q11 10 25 9q14 0 24 -11z" />
    <glyph glyph-name="n.titl" unicode="__n" horiz-adv-x="3578" 
d="M3607 393v0q6 -9 4 -20q-2 -10 -12 -16q-89 -54 -182 -100q-57 -28 -123 -50q-66 -21 -130 -17q-65 5 -116 55q-30 32 -49 70q-19 39 -33 78q-1 1 -1 3q-1 0 -1 1v0q-3 7 -5 13q-8 24 -22 45q0 1 -2 1q-1 1 -3 0q-37 -22 -68 -56q-5 -4 -10 -9q-69 -72 -133 -151
q-38 -47 -75 -95q-11 -14 -27 -16t-30 8q-16 14 -15 35q11 163 56 320q-165 -70 -432.5 -158t-582.5 -163t-621.5 -108t-549 6.5t-366.5 181.5q-17 21 -43 62.5t-34 79.5t28 51q17 4 31 3t17 -17q33 -192 184 -279t380.5 -94t496.5 39.5t531.5 122t486 153.5t359 133.5
t151.5 62.5v0h1v0v0l1 1q4 1 9 2q20 2 35 -12t9 -40v0q-32 -98 -49 -200q0 -2 1 -3t3 -1q2 -1 3 1q57 68 121 130l4 4q2 1 4 3q28 28 67 55t78 21q23 -6 38 -28q14 -22 21 -42l18 -52q20 -68 53 -130q49 -76 124 -70q75 5 149 47q75 43 123 79q16 11 26 18q34 22 67 47
q8 6 18 5q10 -2 17 -10z" />
    <glyph glyph-name="o.titl" unicode="__o" horiz-adv-x="3348" 
d="M3379 393v0q3 -7 3 -15q-1 -14 -10 -20t-20 -3q-11 2 -16 13q-1 2 -3 4l-2 2q-3 4 -7 7q-24 10 -52 13h-1h-1q-48 7 -98 8q-133 4 -266 -1q-9 -1 -14 -6q-6 -5 -7 -13q-20 -112 -101 -191l-2 -2q-1 0 -1 -1q-4 -3 -7 -6q-14 -12 -28 -22q-25 -19 -57 -26q-33 -7 -62 11
l-4 3q-4 3 -8 7q-7 7 -12 15q-29 49 -26 109q3 61 20 112q16 54 49 100q-165 -71 -434.5 -158.5t-587 -162.5t-626 -107.5t-553 7t-367.5 181.5q-17 21 -43 62.5t-34 79.5t28 51q17 4 31 3t17 -17q33 -188 184 -275.5t381 -98t498 33t535.5 115t494.5 148t374 133.5t175 70
v1h1v0q2 1 3 1q2 1 3 2q28 11 61 13q12 0 31 -6q18 -5 30 -16q11 -10 2 -27v0q-5 -6 -13 -9q-9 -2 -14 4q-38 43 -72 37q-35 -6 -56 -41q-24 -42 -38 -112t-14 -118q0 -18 3 -37t11 -33q4 -7 10 -9q14 -5 43 14q29 20 56 62t37 105q1 8 -3 15t-12 10q-15 5 -29 15
q-13 10 -20 27q-6 16 1 32q7 17 22 24q13 5 20 6q27 1 56 -12q28 -14 43 -38q5 -8 14 -10q115 -24 233 -21q22 -1 45 -1q2 -1 3 -1h3q47 0 94 -3h7q2 -1 3 -1q36 -1 71 -13q7 -3 14 -9t11 -14z" />
    <glyph glyph-name="p.titl" unicode="__p" horiz-adv-x="3496" 
d="M3538 384v0q3 -16 -7 -28q-10 -11 -26 -11q-214 9 -419 -59q-1 0 -2 -2q-59 -92 -102 -139q-47 -55 -105 -99q-29 -23 -68 -40q-17 -7 -37 -9q-21 -2 -40 4q-17 5 -31 18q-13 13 -11 32q14 58 68 102q53 43 104 70q63 33 128 58q1 1 1 2q46 64 77 130q7 15 14 38
q8 23 10 45t-10 34l-2 1l-2 1q-2 1 -3 2h-2v1v0v0q-6 2 -11 4q-43 7 -89 -22q-47 -28 -88 -70q-40 -42 -66 -74q-86 -106 -160 -238v-2v-1l-2 -10q-56 -377 -133 -750q-7 -25 -30 -30t-40 14v0v1q-32 64 -26 140t21 143q1 4 2 7v2q38 164 101 320v1v0q13 82 26 165
q31 199 65 397q-145 -97 -407.5 -196.5t-582 -177t-635 -107.5t-566 14t-374.5 186q-17 21 -43 62.5t-34 80t28 50.5q17 5 31 3.5t17 -16.5q32 -182 175 -271t360.5 -106t473 19.5t513.5 107t482 155t378 163.5t202 133q5 15 15 22v0v0q2 4 4 2q3 2 7 3q20 6 37 -6t15 -39
q-33 -179 -61 -358q0 -3 1 -4q2 -1 4 -1t3 2q51 92 114 177t134 135q71 51 143 39q12 -3 22 -7v0v0l1 -1q1 0 2 -1q4 -1 8 -3l5 -3q2 -1 5 -3v0v0q51 -40 41 -110q-9 -70 -51 -146q-1 -2 1 -4t4 -2q184 51 372 83q4 1 7 1q3 1 6 1q14 3 25 -5q10 -7 13 -20zM2525 -192v0
q1 3 -1 4q-2 2 -4 1q-2 0 -3 -3q-27 -84 -41 -165q-7 -43 -7 -100q0 -3 2 -4t4 0t3 3q25 132 47 264zM2930 206v0q2 2 1 4q0 2 -2 3t-4 -1q-21 -12 -41 -25q-58 -39 -98 -95q-1 -1 0 -3q0 -2 2 -3t4 0q19 10 37 24q54 42 101 96z" />
    <glyph glyph-name="q.titl" unicode="__q" horiz-adv-x="3174" 
d="M3024 700v0q37 -41 35 -116q-2 -76 -14 -136q-1 -5 -1 -10q-1 -3 -1 -6q-41 -211 -101 -425q-12 -46 -24 -91v-1q0 -2 -1 -4q-30 -113 -59 -231v-3q10 -46 14 -85v-2q0 -3 1 -7q10 -111 0 -223q0 -5 -1 -11q-3 -54 -22 -107q-3 -7 -7 -13q-4 -7 -12 -13q-11 -11 -27 -13
q-15 -1 -29 5q-41 19 -45 65t3 88v5q1 1 1 2q10 68 25 133q21 94 47 196q1 3 -1 5q-8 13 -19 19q-10 6 -24 0q-12 -5 -23 -1q-12 4 -18 16q-5 11 -1 23t16 17q7 4 15 4q13 1 27 -2q26 -6 42 -24q1 1 1 2v3v0q3 11 6 23q1 4 3 9q62 242 114 481q28 127 41 256v6v2
q7 56 -7 104q-1 3 -2 5q-40 -17 -95 -91q-1 -2 -1 -4q0 -3 3 -5q18 -13 18 -32q0 -20 -15 -32q-14 -13 -39 -7l-14 6q-5 1 -7 -3q-32 -47 -58 -87q-23 -35 -38 -57q-5 -7 -9 -13q-44 -69 -98 -133q-18 -21 -43 -39q-24 -18 -55 -14q-6 1 -12 3q-60 31 -61 97q-2 66 20 121
q20 54 55 99q-181 -74 -445 -156.5t-563.5 -149t-586 -91.5t-512 17.5t-342.5 176.5q-17 21 -43 62.5t-34 80t28 50.5q17 5 31 3.5t17 -16.5q37 -208 214 -293.5t440.5 -81.5t559.5 64t571 143.5t475.5 158.5t272.5 108q31 19 67 30q58 17 117 9q4 0 6 3q35 49 79 93
q25 28 62 45q36 18 74 -2q3 -2 6 -5q1 -1 2 -1v-1q1 0 1 -1zM2735 480v0q2 3 0 6q-2 4 -6 3q-87 -12 -146 -94q-46 -64 -52 -141q-1 -18 3 -31v0v0q1 0 2 -1h2t2 -1q1 0 4 -1q35 32 64 74q2 3 5 7q1 2 3 5q43 60 84 121q17 26 35 53zM2823 -632v0q24 109 14 222v-3
q0 -2 -1 -4l-2 -8q-18 -85 -30 -171v-8q-4 -34 -5 -68h3q1 0 2 -1v0v0h1v0v0h1v0v0v0v0h1v0q1 0 4 -1q7 21 12 42z" />
    <glyph glyph-name="r.titl" unicode="__r" horiz-adv-x="3451" 
d="M3481 381v0q1 -10 -5 -18q-7 -8 -17 -8h-28q-73 -2 -145 0h-8q-53 2 -116 9q-62 7 -118 29q-55 23 -86 70q-23 43 -26 90l-2 10q-1 16 -7 28v0v0h-0.5h-0.5v0v0v0v0h-1v0v0h-4h-4h-1q-49 -22 -108 -135t-107 -239q-49 -126 -69 -186q-9 -23 -29 -26q-19 -4 -35 9
q-15 12 -13 37l10 58q6 36 14 81q5 30 10 64q15 85 29 170q9 53 17 95q3 18 5 33q-155 -90 -420.5 -189.5t-582.5 -181t-627.5 -116.5t-557 4.5t-370.5 181.5q-17 21 -43 62.5t-34 80t28 50.5q17 5 31 3.5t17 -16.5q31 -186 176 -273t366.5 -98.5t481 31.5t519.5 118
t483 160.5t370.5 159.5t182.5 114q0 1 3.5 4t7.5 6.5t9 4.5q20 7 37 -6q17 -12 15 -38l-33 -195q-1 -2 1 -3q1 -2 3 -1q2 0 3 2q23 47 55 100q33 54 73 92q39 39 83 41q21 0 39 -11q17 -12 24 -33q7 -26 6 -52q0 -19 2 -37q14 -73 82 -99q69 -26 136 -30q127 -8 253 13
q9 1 17 -5q7 -5 9 -15z" />
    <glyph glyph-name="s.titl" unicode="__s" horiz-adv-x="3403" 
d="M3434 386v0q2 -11 -4 -21q-6 -9 -18 -12h-1q-10 -1 -19 0q-10 0 -20 -1q-50 -2 -99 -11q-134 -26 -260 -76q-103 -38 -200 -89q-3 -2 -4 -5t0 -6q17 -53 -16 -93t-81 -59q-28 -12 -59 -12v0h-1q-5 0 -15 4l-1 1v0q-48 36 -10 80t108 82q4 3 4 6q1 4 -1 8l-58 74
q-32 39 -63 81l-1 1q-4 5 -7 10l-1 1q-72 -28 -250.5 -81.5t-424 -112.5t-518.5 -101t-534.5 -46t-471.5 51t-330 191q-18 20 -43.5 61.5t-33 80t27.5 50.5q17 5 30 4t18 -17q61 -198 234.5 -294t418 -114t519 18t536 101.5t469.5 136.5t321 122q-1 1 -1 2l-1 1
q-19 33 -24 72q-4 47 20 86q25 39 63 61q47 28 106 37q60 10 110 -12q51 -27 41 -68q-10 -40 -53 -83q-44 -43 -93 -77q-49 -33 -75 -45q26 -37 53 -75q33 -46 65 -93q2 -3 5 -4t6 1q45 21 70 33q5 2 9 3v0q190 82 388 138q67 19 136 33q13 2 22 -4q10 -7 12 -19zM2641 430
v0q7 -2 15 2q31 18 84 55t92 77q38 39 27 64l-2 2q-27 21 -90 3q-64 -18 -110 -69q-47 -51 -24 -128q2 -4 8 -6zM2735 77v0q28 29 29 56q0 6 -5 8q-4 2 -9 0q-22 -13 -54 -34q-31 -21 -52 -42q-21 -22 -13 -37q14 -12 45 4q32 15 59 45z" />
    <glyph glyph-name="t.titl" unicode="__t" horiz-adv-x="2809" 
d="M3696 1002v0q1 -4 1 -8v-9q-4 -16 -17 -21t-26 1q-12 7 -14 24q-27 14 -60 19h-1v0q-25 5 -50 7q-128 13 -257 12q-220 0 -440 -11q-40 -69 -85 -136q-33 -51 -72 -100q-2 -3 -4 -5q-1 -1 -3 -2q-43 -134 -78 -270q-6 -23 -18 -61q-24 -80 -55 -199q-30 -119 -47 -247
q-16 -127 3 -232q18 -104 92 -153q13 -7 28 -5q13 0 22 -9t9 -22t-8 -22q-9 -8 -22 -9q-9 0 -17 4q-40 20 -65 52q-51 75 -60 171q-10 96 -4 184q14 213 56 422q32 160 76 317q-163 -124 -426.5 -250t-572.5 -227.5t-609 -150.5t-537.5 -18.5t-356.5 167.5q-17 21 -43 62.5
t-34 80t28 50.5q17 5 31 4t17 -17q38 -203 215 -281t439.5 -61t557 99.5t568.5 200t474.5 240.5t274.5 222q2 8 7 15q5 6 9 12l2 2v0v1q27 83 57 164q-70 -3 -151 -7q-158 -7 -295 -16q-28 -1 -56 -4q-65 -6 -131 -3h-1h-1q-6 1 -16 4q-3 1 -6 3l-4 2q-3 2 -6 6q-5 5 -6 12
q-3 10 0 19q8 18 25 18q18 0 26 -17q76 -17 155 -17h12h8q162 0 342 13q59 3 112 6q29 78 90 219q62 141 136 269q74 127 140 163q17 8 37 4q21 -4 30 -23q3 -7 4 -12q1 -7 0 -11v0q-3 -28 -13 -53l-2 -6q-1 -1 -1 -3q-11 -29 -23 -57q-107 -247 -242 -480q33 2 67 4
q237 15 464 21h29q65 2 145 -2q80 -5 123 -27q8 -5 17 -17q2 -3 4 -7t3 -8zM2054 1028v0h1q-1 1 -3 2h-1v0v0v0v0v0l1 -1l2 -1v0v0zM2795 1113v0q110 193 203 396q-29 -45 -56 -92q-81 -148 -147 -304zM3642 987v0q1 -1 1 0l-1 1v-1v0v0v0v0z" />
    <glyph glyph-name="u.titl" unicode="__u" horiz-adv-x="3456" 
d="M3493 399v0q7 -9 6 -20q-2 -11 -10 -18l-1 -1q-20 -11 -44 -25q-2 -1 -3 -2q-73 -42 -165 -91q-92 -48 -183 -80q-90 -32 -157 -25q-9 2 -18 5q-17 6 -31 19q-7 6 -12 13q-41 64 -32 158q-1 5 -5 7q-4 1 -7 -3q-41 -57 -88 -110q-30 -33 -69 -61q-40 -29 -88 -25
q-2 0 -5 1v0h-1q-43 11 -64 50q-26 58 -19 128q8 69 26 128q3 9 8.5 22.5t10.5 25.5q3 8 5 13q-165 -71 -425 -160t-562.5 -166.5t-596.5 -112.5t-528 3t-357 179q-17 21 -43 62.5t-34 79.5t28 51q17 5 31 3.5t17 -16.5q33 -190 180 -275.5t369 -92.5t480.5 39t514 120.5
t469.5 151.5t347 132t147 62q6 4 14 5q16 3 30 -6q14 -11 17 -26q2 -16 -7 -30q-31 -52 -51 -135q-19 -83 -4 -141l2 -6q0 -1 1 -1v0q3 -7 9 -11q1 0 3 -1v0v0v0v0h1h3q55 18 119 96q65 78 100 130q31 44 60 90q10 14 25 14t25 -11t6 -28q-2 -6 -3 -11l-4 -12
q-25 -75 -40 -153q-8 -39 -6 -84t34 -72q5 -3 11 -6l12 -4v0h1q75 -8 172 32q97 41 189 100t150 107q10 7 21 6q11 -2 19 -11z" />
    <glyph glyph-name="v.titl" unicode="__v" horiz-adv-x="3526" 
d="M3567 382v0q2 -14 -8 -25q-9 -11 -24 -12q-24 0 -49 -1q-111 -3 -222 1q-1 1 -2 1q-47 2 -105 13q-58 10 -97 41q-42 -100 -90 -198q-4 -8 -9 -17q-24 -51 -63 -109q-39 -59 -84 -70q-3 -1 -6 -1v0h-2h-3q-48 4 -67 43t-22 90t-1 90q1 6 1 10q7 115 25 228v5q1 1 1 3
q1 10 3 21q-164 -70 -442.5 -158t-610 -164t-655 -109.5t-578.5 6t-379 181.5q-17 21 -43 62.5t-34 80t28 50.5q17 5 31 3.5t17 -16.5q32 -190 184.5 -277t384.5 -97t504 34t544 116.5t504.5 150.5t384.5 137t184 75q3 1 6 3q3 1 5 1q17 4 33 -5q18 -11 17 -38
q-4 -27 -11 -74q-18 -101 -30 -219t15 -165v0h1v0v0v0h1v0q1 0 3 2q17 13 31 32q43 58 76 124q60 116 112 237v1v0q0 2 -1 4q3 46 25 86t49 76q0 1 1 1q3 5 7 10q10 11 23 9q12 -2 19 -12q8 -10 2 -25q-22 -48 -45 -107q-7 -17 -13 -31q-5 -11 -9 -21t-9 -21q18 -21 47 -31
q30 -9 57 -13q86 -11 174 -5q89 6 177 20q13 2 24 -6q10 -7 13 -21z" />
    <glyph glyph-name="w.titl" unicode="__w" horiz-adv-x="3610" 
d="M3652 385v0q3 -15 -6 -26t-24 -11v0q-22 0 -45 1q-94 0 -188 9q-95 10 -182 47q-12 5 -23 12q-1 -28 -4 -48q-6 -68 -35 -137t-101 -90l-5 -2h-7q-69 0 -109 71q-41 72 -54 156q-14 -26 -44 -84q-27 -51 -53 -100q-26 -50 -39 -70q-2 -3 -4 -7q-2 -1 -3 -3
q-20 -32 -48 -63t-64 -33q-4 0 -7 1q-59 12 -66 97q-7 84 18 196q25 111 60 207q5 12 12.5 32.5t11.5 31.5q-163 -90 -431 -193t-584 -189t-624.5 -125t-554 0t-371.5 186q-18 21 -43.5 62t-33 80t27.5 51q17 5 31 3.5t17 -16.5q33 -185 173.5 -273t354.5 -100t467 30.5
t510.5 117.5t486 161.5t393 162.5t230.5 121h1v0l1 1v0q1 0 2 1q10 5 21 3q21 -3 31 -21q11 -17 -2 -41v0v0q-30 -47 -68 -154q-39 -107 -62 -215t-7 -158q1 -1 1 -2v0q1 -2 2 -3t3 -2h1v0h1v0v0v0h1q31 6 75 80t85 166q42 93 67 154q14 33 19 44q11 20 30 24q19 3 35 -7
q17 -11 19 -34v-2v-2v0v0v-2v-1v-3q-2 -56 13 -139q14 -82 52 -121q5 -4 10 -5h3v0h2l2 1q49 14 72 91t26 165q-46 68 -18 163q7 17 21 17q14 1 24 -12q18 -28 25 -78q6 -50 5 -103q51 -40 127 -55q77 -14 143 -11q81 1 161 18q13 3 23 -4q10 -6 13 -19z" />
    <glyph glyph-name="x.titl" unicode="__x" horiz-adv-x="3541" 
d="M3585 385v0q4 -17 -14 -31v-1q-9 -5 -17 -11q-73 -47 -147 -91q-75 -44 -155 -76q-15 -6 -29 -11l-6 -2v0q-259 -88 -390 134l-20 -28q-80 -113 -125 -244q-5 -16 -20 -24q-14 -8 -30 -3q-19 6 -26 24q-7 17 2 35v0q74 124 158 241l36 50q-26 62 -40 127q-12 50 -16 102
q-373 -216 -774.5 -361t-776 -199.5t-668 -0.5t-449.5 236q-17 21 -43 62.5t-34 80t28 50.5q17 5 31 4t17 -17q39 -219 211 -318.5t429.5 -106t554.5 53.5t586.5 160.5t525.5 216t371 218.5q11 11 29 12q19 -1 30 -15q12 -14 9 -33q-9 -67 -1 -135q5 -45 16 -89
q75 100 164 187q40 38 88 71q15 9 30 6q16 -3 26 -17q10 -16 5 -33q-5 -18 -22 -26q-49 -23 -93 -58q-100 -83 -179 -188q56 -143 156 -175q99 -33 260 55q142 75 259 185q18 15 33 7q16 -7 20 -24z" />
    <glyph glyph-name="y.titl" unicode="__y" horiz-adv-x="3708" 
d="M3739 398v0q7 -13 1 -26q-6 -14 -25 -16q-73 2 -145 -11q-227 -47 -398 -198q-3 -3 -3 -6q-41 -163 -119 -410q-79 -248 -174 -465t-186 -287q-16 -12 -38 -14q-21 -3 -38 10q-28 27 -29 87q-1 61 12 124q12 63 21 100q61 230 181 457q121 228 301 401q2 3 3 6
q12 51 25 102q35 135 58 246q24 110 19 164v2q-1 9 -4 19t-13 12q-47 -2 -96 -69t-102 -160q-41 -72 -85 -138q-43 -66 -89 -106q-46 -41 -95 -37q-51 8 -72 47q-20 39 -17 87q6 70 24 134q1 4 2 7l4 14q1 5 2 11q1 4 2 9q-164 -70 -434.5 -158t-591 -164t-632.5 -109
t-559 6.5t-371 181.5q-17 21 -43 62.5t-34 80t28 50.5q17 5 31 3.5t17 -16.5q33 -189 183 -276.5t377.5 -99t493 31t530 114t489 150t368.5 139t170 80.5q1 1 2 1q16 10 35 5q20 -6 26 -31q2 -18 0 -28v-1v-1q-2 -21 -14 -67q-10 -38 -19 -78q-9 -41 -8 -71t18 -37h4v-1h1
q35 -2 76 35q41 36 79 88t65 95q13 19 22 32l2 2q4 7 8 13q37 57 78 111q26 34 64 62t83 6q6 -4 11 -9l6 -6q24 -34 20 -114q-3 -80 -20 -170q-17 -91 -33 -157q-1 -8 5 -12q6 -3 13 1q108 79 234 125q125 46 268 49q18 -1 25 -14zM3067 12v0q1 5 -2 9t-8 5q-5 0 -9 -4
q-115 -135 -199 -292q-84 -158 -138 -315q-49 -140 -68 -286q-4 -36 -3 -70q1 -13 3 -25q2 -6 7 -8t10 1q58 41 130 194q73 152 146 363q72 211 131 428z" />
    <glyph glyph-name="z.titl" unicode="__z" horiz-adv-x="3253" 
d="M3280 389v0q3 -14 -5 -24q-8 -11 -21 -11q-79 -4 -156 -23q-134 -33 -259 -91q63 -81 52 -174q-11 -92 -70 -170q-132 -171 -334 -245q-41 -14 -85 -21q-44 -6 -89 5q-67 19 -89 85q-9 41 7 80q15 39 37 72q86 114 213 206q127 91 254 155q-39 26 -94 43t-102 11
q-14 -7 -27 1q-15 10 -17 24t5 25q22 33 44 67v0q-555 -296 -1040.5 -415t-853.5 -55.5t-572 317.5q-17 21 -43 62.5t-34 80t28 50.5q17 5 30.5 3.5t17.5 -16.5q57 -244 248.5 -365.5t472 -137.5t605.5 58t649 223.5t601 357.5q19 12 36 5t23 -24t-6 -35q-38 -52 -79 -111
q-16 -23 -31 -45q117 -9 208 -82h2q7 -1 13 -2q206 87 427 137q12 2 21 -4q10 -6 13 -17zM2818 57v0q13 68 -33 131q-3 4 -11 5q-8 2 -16 3q-9 0 -13 -2v0q-12 -6 -23 -13q-117 -63 -227 -148q-109 -84 -184 -190q-18 -26 -30 -59q-13 -33 1 -61q15 -25 46 -33
q83 -12 177 35t157 101q52 43 97 103q46 61 59 128z" />
    <glyph glyph-name="a.swsh" unicode="a__" horiz-adv-x="3051" 
d="M3091 403v0q15 -12 7.5 -26.5t-26.5 -24.5t-39.5 -10t-31.5 16q-71 142 -231.5 201.5t-378.5 58t-460.5 -41.5t-478 -98t-431.5 -112q-171 -46 -288.5 -74t-159.5 -23q-98 14 -124 77q-25 63 -9 151v0v0v0v0q-16 -10 -30 -23v0v-1v0v0q4 -5 8 -11q9 -15 7 -32
q-3 -17 -17 -29q-15 -10 -33 -8q-17 3 -29 18v0v0q0 1 0 0.5v-0.5q-36 -37 -71 -76q-59 -64 -122 -127q-6 -4 -11 -10q-30 -29 -69 -53t-79 -4v0v0l-6 4q-32 26 -40 64q-7 39 2 76q32 133 136 223q61 53 134 63t139 -43h1v0v0v0q27 24 61 42q18 10 40 10t38 -16
q14 -17 14 -36q-1 -20 -6 -38v-3q0 -1 -1 -2q-2 -9 -4 -20q-12 -42 -15 -88t27 -74q42 -32 173.5 -0.5t327.5 95.5q216 70 480 140t546.5 100.5t552.5 -18.5t497 -217zM293 467v0v0v0v0v0v0q-54 27 -115 -23t-103 -119q-43 -70 -40 -103v0v0v0q32 20 60 48q52 48 104 102
l3 3l4 4v0v1z" />
    <glyph glyph-name="b.swsh" unicode="b__" horiz-adv-x="2971" 
d="M3000 403v0q14 -22 2.5 -40t-32.5 -22t-36 17q-117 173 -345.5 243t-517.5 63.5t-587 -64.5t-553.5 -143.5t-417.5 -173.5q-3 -10 -7 -20q-22 -71 -41 -123q-64 -175 -165 -330q-22 -32 -58 -70q-35 -38 -76 -54q-42 -16 -82 18q-2 2 -3 4q-2 2 -3 4q-23 42 -10 104
q12 62 40 123q9 22 48 84t109.5 138t173.5 139q4 19 7.5 51.5t4.5 55.5q1 42 -16 72l-7 7q-1 0 -3 1v0q-2 1 -3 2q-1 0 -3 1v0q-2 1 -3 1v0q-53 10 -112 -49q-60 -59 -110 -136t-74 -121q-44 -77 -82 -158q-10 -19 -28 -22q-18 -2 -32 8q-15 10 -16 32v0q8 203 46 403
t96 394q46 155 109 305q46 114 113 218q24 37 56 71q32 35 75 49q28 7 51 -3t32 -37q10 -38 3 -74q-13 -71 -39 -139t-56 -133q-102 -222 -237 -425q-35 -52 -75 -100q-14 -16 -32 -32q-7 -7 -16 -9q-31 -159 -42 -320q34 63 96 154t139 154q77 62 159 40l7 -3q11 -5 21 -11
q42 -33 50 -83q10 -52 1 -122q149 74 408 148.5t569.5 125.5t613.5 57t540 -56t350 -214zM158 826v0q-22 -76 -40 -152q102 135 185 283l8 14t8 13q22 37 61 112q39 74 76 157q37 82 53 143t-7 71q-39 6 -102 -91q-64 -96 -130 -246t-112 -304zM328 -9v0q28 60 59 135.5
t40 108.5q-88 -60 -171.5 -164.5t-119.5 -201.5q-32 -88 -30 -150q2 -8 4 -10v0v0v-1v0v0v0v0v0h1v0v0v0v0v0v0v0v0q2 -2 4 -2q43 -4 102 85t111 200z" />
    <glyph glyph-name="c.swsh" unicode="c__" horiz-adv-x="2736" 
d="M2762 403v0q17 -19 5.5 -37.5t-34 -23t-38.5 15.5q-64 155 -221.5 215.5t-376.5 52t-469.5 -63t-500.5 -129.5t-469 -148q-182 -59 -322.5 -101.5t-222.5 -53.5q-44 -5 -76.5 10.5t-52.5 40.5q-40 49 -21 137q23 85 75 155q51 71 119 125q40 32 92 49q51 18 101 -8
q44 -31 41 -78q-4 -48 -38 -83q-20 -18 -40 -11q-20 6 -27 25q-8 20 8 41h1v1q7 7 22 25q14 18 24 36q9 19 -1 27q-24 14 -70 -16q-45 -30 -94 -83q-50 -54 -88 -112q-16 -25 -39 -69q-22 -43 -35 -87q-14 -44 -3 -73q27 -50 118 -32q95 24 309 109q181 72 418.5 156
t500.5 151t523.5 87.5t488 -35t393.5 -215.5z" />
    <glyph glyph-name="d.swsh" unicode="d__" horiz-adv-x="3146" 
d="M3174 403v0q18 -17 4.5 -41t-39 -36t-41.5 9q-144 200 -326.5 266t-387.5 33t-418.5 -132t-420 -229t-392.5 -258q-156 -108 -287 -191t-228.5 -121t-151.5 -11q-47 29 -56 106.5t5 176.5t36.5 193t40.5 155q84 298 181 592q17 55 35 110q47 140 88 281q1 5 -1 6
q-1 2 -4 1q-2 -1 -4 -3q-13 -22 -26 -45q-111 -204 -213 -414q-82 -168 -170 -334q31 -30 54 -65q13 -26 1 -45q-12 -20 -34 -23q-23 -3 -41 20q-12 18 -24 32q-1 -2 -2 -5q-2 -2 -3 -4q-4 -8 -9 -16q-82 -154 -187 -295q-34 -44 -82 -85q-49 -42 -109 -31l-8 2
q-54 28 -56 91q-2 64 22 132t46 109q50 100 133 177q62 59 149 69q45 2 84 -16q95 173 186 349q69 132 140 263q49 92 105 180q1 1 2 3l1 1q18 29 45 56l1 1v0q9 8 22 14q14 6 29 2q15 -5 23 -18q9 -19 4 -50q-5 -30 -14 -56q-3 -11 -5 -18q-50 -192 -156 -469
q-67 -179 -130 -365q-62 -186 -100 -356q-49 -214 -36.5 -304t79 -84.5t178.5 78.5t263 186q163 121 361 254.5t421 242.5t461 157.5t481 0t481 -228.5zM-14 84h-1v0v0v0v0h1v0v0v0zM269 452v0q9 16 19 33q-47 14 -103 -34t-105 -123q-50 -76 -76 -145q-27 -69 -15 -98
q40 15 91 79q52 64 100 140q48 77 77 128q7 11 12 20z" />
    <glyph glyph-name="e.swsh" unicode="e__" horiz-adv-x="2820" 
d="M2848 402v0q16 -21 4.5 -39t-33 -22t-37.5 17q-43 167 -219 225t-434.5 37.5t-549.5 -88.5t-564 -152t-479 -153q-196 -66 -286 -90q-131 -31 -210 11q-7 4 -13 8l-1 1q-63 47 -61 124q2 76 46 151q45 75 111 117q66 43 133 23v0v0q5 -2 10 -3q0 -1 2 -1l2 -2v0l4 -2h1
q20 -12 28 -33q8 -22 4 -43q-9 -46 -37 -85q-29 -39 -65 -68q-49 -41 -113 -52q-31 -4 -64 4q-3 -25 10 -63q12 -38 42 -57q64 -27 155 0q100 27 300 101q191 69 439 151t519 147t531 84.5t475 -35.5t350 -213zM127 456v0q-40 -34 -73 -92q38 -3 72 17q33 21 59 50
q27 29 39 66q-26 5 -52 -10q-26 -14 -45 -31z" />
    <glyph glyph-name="f.swsh" unicode="f__" horiz-adv-x="2524" 
d="M2555 397v0q13 -22 2 -40t-32 -22t-37 17q-92 167 -294 246t-474 80t-574 -65.5t-593.5 -190.5t-533.5 -294q-2 -2 -3 -5q-22 -108 -40 -211q0 -2 2 -5q47 -68 67 -152q15 -52 20 -137q6 -84 -13 -160q-18 -75 -75 -101h-1v0q-36 -7 -56 13q-20 21 -28 54q-9 32 -11 60
q-6 102 3 203q9 100 23 200q0 3 1 5v4q1 2 1 4v3t1 1v2q0 3 -2 6q-58 55 -148 57q-26 3 -32 24q-6 22 16 37q101 55 202 108q3 2 3 5q52 279 129 553q4 13 9 30q22 79 58 177q36 99 78 141q7 6 18 10q11 5 22 4q26 -1 40 -21q15 -20 16 -43q1 -68 -24 -144t-57 -136
q-33 -68 -91 -120q-8 -7 -17 -9q-4 -1 -5 -4q-50 -182 -94 -386q-1 -4 2 -7q4 -2 8 -1q353 201 734.5 331t736.5 170t629.5 -28t413.5 -263zM-78 -17v0q6 41 13 81q1 5 -3 7q-3 3 -7 1q-37 -23 -73 -47q-3 -3 -3 -7q1 -3 5 -5q30 -14 57 -34q3 -3 6 -1q4 1 5 5zM23 -444v0
q11 131 -48 263q-3 4 -8 3q-4 0 -6 -5q-22 -154 -24 -263q-3 -109 22 -145q0 -1 3 0q31 17 44 64q14 47 17 83z" />
    <glyph glyph-name="g.swsh" unicode="g__" horiz-adv-x="3095" 
d="M3129 403v0q17 -18 5.5 -36.5t-34 -23.5t-38.5 15q-93 173 -323.5 253.5t-537 79t-626.5 -76.5t-592 -213.5t-435 -331.5l-6 -21q-14 -53 -46.5 -168t-66.5 -222q-80 -248 -183 -486q-34 -77 -78 -150q-18 -28 -44 -54q-27 -25 -64 -15q-29 13 -36 42t-6 57q4 86 23 169
q59 261 178 500q119 240 302 436q0 1 1 2q13 51 37 157q23 107 35 209q11 102 -13 141v0v0v0h-1v0v1h-1h-1q-23 4 -54 -18q-30 -22 -59 -53q-28 -30 -46 -50q-1 -2 -1 -4q1 -2 3 -3q38 -19 72 -43q20 -17 16 -38q-3 -20 -21 -30q-18 -11 -41 2q-40 27 -84 43q-3 1 -5 -1
q-32 -39 -71 -85q-39 -45 -72 -83q-2 -3 -5 -6l-2 -2q-50 -60 -109 -115q0 -1 -1 -1q-18 -17 -41 -32q-22 -15 -49 -17q-7 -1 -14 0q-55 16 -59 69t11 98q36 111 120 191q119 110 277 77q2 0 4 2q46 44 97 84q33 27 73 48q19 10 42 14t44 -8q4 -2 7 -5q35 -36 33 -116
q-3 -79 -13 -138q-1 -9 -2 -17q-9 -51 -20.5 -110.5t-22.5 -109.5q126 127 358.5 236.5t526 180t601.5 80.5t584 -60.5t474 -243.5zM3 217v0v0v0v0v0v0zM262 481v0q2 2 1 5q-2 3 -5 2q-56 -6 -102 -38q-45 -32 -78 -80q-42 -60 -56 -132q0 -3 2 -4q3 -2 5 0q35 28 66 62l2 2
l1 1q53 56 103 114q30 34 61 68v0v0zM488 26v0q-1 7 -75 -105t-207 -408q-61 -149 -94 -307q-20 -80 -23 -160q0 -4 3 -5t5 2q48 67 83 144q3 7 6 13q101 221 181 453q66 184 121 373z" />
    <glyph glyph-name="h.swsh" unicode="h__" horiz-adv-x="2994" 
d="M3019 403v0q18 -18 6.5 -36.5t-34 -23.5t-38.5 15q-71 155 -235 212.5t-387 44t-471 -71.5t-487 -134.5t-435 -145.5q-295 -106 -401 -123q-37 -4 -71 10q-39 19 -52 58t-17 81q-4 34 -11 60q-8 26 -30 33q-32 1 -70 -39t-74 -94q-35 -54 -60 -96q-11 -19 -18 -31
l-67 -113v0v-1v0v0v0v-0.5v-0.5q-10 -15 -27 -18t-32 7v0q-41 35 -42 123q-1 87 17 185t34 162q2 10 4 18l2 8q-20 -3 -41 1q-17 4 -26 17q-8 14 -5 31q4 16 17 25t30 6q13 -4 25 1q12 4 24 12q12 49 45 157q34 108 81 239q48 132 105 251q57 120 116 193q59 72 115 62
q2 -1 4 -1q34 -15 34 -54t-9 -72q0 -1 -1 -2q0 -4 -1 -8q-33 -124 -83 -242q-49 -118 -108 -232q-76 -154 -185 -289q-27 -31 -61 -58q-23 -99 -40 -199q-18 -101 -17 -201q2 4 5 8q3 5 5 9q30 52 73 118t93 118q51 53 104 66q45 9 77 -14t42 -67q6 -32 5 -78q-1 -35 2 -67
t17 -51q26 -25 134.5 11.5t279.5 106.5q170 70 380.5 148t443 137.5t467.5 74.5t452 -40t397 -206zM184 834v0q-26 -82 -49 -164q88 111 154 236q80 146 141 301q30 77 51 156v2q9 33 9 67q-34 -13 -64 -56q-31 -43 -50 -78l-2 -4q-116 -221 -190 -460zM56 60h1v0v0v0h-1v0z
" />
    <glyph glyph-name="i.swsh" unicode="i__" horiz-adv-x="2823" 
d="M101 621v0q-25 3 -34 37q-8 34 0 68q9 34 34 37q26 -3 34 -37q9 -34 0 -68q-8 -34 -34 -37zM2850 402v0q17 -19 5.5 -37t-33.5 -23t-38 16q-74 161 -248.5 223t-413.5 51t-506 -68.5t-526 -135t-474 -148.5q-180 -59 -304.5 -95.5t-173.5 -35.5q-9 0 -17 1q-45 -1 -81 14
q-41 21 -54 91q-9 95 26 184q3 9 7 20q10 30 27 53q17 24 49 12q16 -9 20 -25q5 -16 -4 -32q-30 -54 -44 -141t17 -145q28 -23 97 -10q120 26 379 122q192 70 431 149t498.5 139t512 75t471.5 -41.5t377 -212.5z" />
    <glyph glyph-name="j.swsh" unicode="j__" horiz-adv-x="2642" 
d="M68 648v0q-16 0 -27 21q-12 21 -12 51q7 70 39 70q33 0 39 -70q0 -30 -11 -51q-12 -21 -28 -21zM2668 403v0q18 -18 6.5 -36t-34.5 -23.5t-39 14.5q-118 176 -368.5 245.5t-570.5 50.5t-646 -108t-595.5 -230t-418.5 -315q-26 -114 -46.5 -197.5t-49.5 -196.5
q-61 -235 -140 -465q-18 -52 -42 -103q-2 -5 -5 -10q-11 -26 -30 -50t-48 -19q-3 1 -5 2q-10 4 -17 13q-6 8 -9 16q-17 56 -12 112v7q3 57 10 112q33 223 116 437q38 98 87.5 179.5t107.5 165.5q9 13 19 27q0 4 2 12t4 17l6 27q48 224 70 451q2 17 14 28q12 10 29 10
q17 -2 27 -14q11 -13 10 -30q-5 -57 -14 -111q-12 -69 -29 -154t-31 -152q161 147 411.5 269t550.5 200t609 94.5t586.5 -48t484.5 -227.5zM-340 -993v0v0v0v0zM-285 -839v0q40 127 84.5 296.5t76.5 301t35 147.5q-105 -167 -166.5 -331.5t-87.5 -359.5v-3v-4
q-15 -94 -2 -187q33 59 54 125q2 6 5 12q0 1 1 3z" />
    <glyph glyph-name="k.swsh" unicode="k__" horiz-adv-x="2859" 
d="M2890 403v0q14 -22 3 -40t-32.5 -22t-36.5 17q-48 152 -186.5 219t-341 69t-443 -40t-494 -107t-492.5 -133q-291 -84 -519.5 -138t-349.5 -43q-11 -60 -21 -120q-20 -121 -30 -243q-10 -123 0 -245q0 -18 -12 -26q-13 -7 -27 -2q-13 5 -16 24q-2 127 12 250
q13 124 33 248q10 62 21 123q-8 3 -14 6q-33 21 -22 52t31 58q3 4 5 7q15 22 31 42q70 344 176 679q46 150 112 293q1 2 2 3q1 2 2 5q22 48 59 99t92 56q31 -3 42 -25q10 -22 0 -44q-11 -22 -42 -25l2 1h-1q-1 -1 -4 -2q-28 -21 -49 -55q-64 -101 -109 -214
q-137 -340 -220 -699v1l1 1v0q66 75 139 142q2 2 4 3q2 2 4 3q53 52 120 87q21 10 47 9q25 -1 43 -22q13 -21 6 -38q-8 -18 -26 -25q-18 -6 -37 8q-63 -22 -160 -114q-98 -93 -171 -187l-20 -98q93 3 259.5 46t383.5 106q229 67 488.5 135.5t522 117t502.5 54t430 -53
t303 -203.5z" />
    <glyph glyph-name="l.swsh" unicode="l__" horiz-adv-x="2809" 
d="M2835 403v0q16 -21 4.5 -39t-33 -22.5t-37.5 16.5q-49 168 -198 228t-365.5 41t-468 -89.5t-504 -164.5t-473.5 -182q-215 -87 -369 -142t-217 -53q-84 9 -134 78q-37 60 -43 130q-5 69 3 137q-18 11 -20 32q-1 21 15 34q9 6 18 15q43 199 126 386q83 186 189 359
q0 1 1 2q5 8 11 18q27 43 68 101t87 101t89 41q23 -3 35 -20q13 -17 13 -39q-1 -33 -10 -63q-34 -110 -86 -210q-150 -300 -342 -575q-54 -80 -120 -152q-12 -61 -16 -124q-3 -64 17 -122q48 -115 134 -111q70 6 201 58.5t306 132.5q195 88 423 182.5t467.5 166.5t468 95
t424.5 -31.5t336 -214.5zM149 641v0q-17 -49 -32 -98q206 276 364 582q25 49 47 99t37 100q7 24 8 47q-38 -17 -75 -62t-62 -80q-91 -137 -162 -285q-70 -149 -125 -303z" />
    <glyph glyph-name="m.swsh" unicode="m__" horiz-adv-x="3247" 
d="M3271 403v0q18 -18 6.5 -36.5t-34 -23.5t-38.5 15q-147 197 -363 253t-468.5 17.5t-508.5 -127.5t-483 -182q-164 -66 -297.5 -114t-225 -61t-127.5 27q-38 36 -57 82q-3 8 -7 15q0 1 -1 3q-5 12 -11 23q0 1 -1 2l-2 4q-9 20 -23 29q-1 1 -2 1q-27 -2 -64 -38
q-36 -36 -65 -71q-13 -15 -22 -24q-6 -7 -11 -13q-24 -30 -57 -51q-17 -9 -37 -7q-20 3 -33 18q-8 10 -11 17q-5 13 -6 21q-4 39 -1 75q0 1 1 2v2q3 47 9 92q7 62 18 122q6 37 11 74q1 5 -3 7q-3 2 -7 0v0v0q-16 -10 -27 -24q-2 -4 -5 -7q-13 -15 -24 -31l-2 -2q0 -1 -1 -2
q-39 -58 -69 -120q-10 -18 -19 -36q-11 -20 -24 -45q-33 -62 -60 -114q-8 -16 -16 -31q-12 -25 -25 -49l-2 -4q-15 -29 -33 -57q-6 -9 -14 -18t-20 -14v0v0q-1 0 -3 -1q-2 0 -4 -1h-9q-2 0 -5 1t-5 2q-6 3 -10 7t-7 9v0q-25 63 -11 167q14 105 31 176v2q1 2 1 4
q20 89 50 176q1 2 1 4q1 3 2 5q14 43 39 80q14 18 35 20t36 -16q10 -13 9 -29q-1 -15 -12 -27v0l-1 -1v0q0 -1 -1 -1q-27 -58 -44 -122q-4 -11 -7 -23q-1 0 -1 -1q-24 -85 -43 -172q-17 -74 -25 -148v1q3 4 6 9q22 37 44 76q24 44 47 89q75 148 169 286l8 12q3 4 6 7v1
q16 24 41 45q24 21 57 22q9 0 19 -2q27 -8 38 -35q3 -10 4 -15v0v0q3 -41 -3 -78q-1 -8 -2 -15q-6 -40 -13 -79q-1 -6 -1 -11q-3 -18 -8 -44t-8 -44q-2 -14 -5 -28q-3 -18 -5 -36q0 -1 1 -1l1 -1h1h1q0 -1 1 -1v0v0v0v0h1v-1h1v0l1 -1h1l1 -1h1q2 1 4 3q23 24 48 46
q26 25 61 48q36 24 72 29q37 4 68 -30q23 -32 34 -69l8 -20q5 -12 10 -27q9 -27 22 -52q12 -25 34 -34q47 -26 168 17t299 123q205 92 457.5 187t525.5 144t537.5 4t492.5 -234z" />
    <glyph glyph-name="n.swsh" unicode="n__" horiz-adv-x="3010" 
d="M3043 403v0q15 -22 3.5 -40t-32.5 -22t-37 17q-65 158 -209 224.5t-341 64t-421 -50t-449 -117t-425 -137.5q-204 -70 -355 -114t-220 -38q-64 7 -116 55q-30 32 -49 70q-19 39 -33 78q-1 1 -1 3q0 1 -1 1q-2 7 -5 13q-8 24 -21 45q-1 1 -3 1q-1 1 -3 0q-37 -22 -68 -55
l-10 -10q-69 -72 -132 -151q-39 -47 -76 -95q-11 -14 -27 -16t-30 9q-16 13 -15 34q13 190 71 372q11 25 32 27q20 3 35 -12q15 -14 9 -40v0q-32 -98 -49 -200q0 -2 1 -3t3 -1t3 1q57 68 121 130l4 4t4 3q28 28 67 55q40 27 78 21q23 -6 38 -28q14 -22 21 -42q9 -25 18 -51
q20 -69 54 -131q48 -73 123 -70q64 6 304 95q174 64 404 140t483 136t495 76t439.5 -39.5t317.5 -211.5z" />
    <glyph glyph-name="o.swsh" unicode="o__" horiz-adv-x="2792" 
d="M2819 403v0q14 -22 2.5 -40t-32.5 -22t-36 17q-65 137 -224.5 205t-379.5 83.5t-466.5 -4.5t-486 -59t-437.5 -81.5t-321 -72.5q-113 -26 -133 -28q-8 -1 -14 -6t-7 -13q-20 -112 -101 -191q-1 0 -2 -1q0 -1 -1 -1l-7 -7l-28 -22q-25 -18 -57 -26q-33 -7 -62 11l-4 3
q-4 3 -8 7q-7 7 -12 15q-28 49 -26 109q3 61 20 112q20 68 68 123q48 56 122 59q12 0 31 -5q19 -6 30 -16q12 -11 2 -28v0q-5 -6 -13 -8q-9 -3 -14 3q-38 43 -72 37q-35 -6 -56 -41q-24 -42 -38 -112t-14 -118q0 -18 3 -37t11 -33q4 -7 11 -9q14 -5 42 15q29 19 56 61
t37 105q1 8 -3 15t-12 10q-15 5 -29 15q-13 10 -20 27q-6 16 1 32q7 17 23 24q12 6 19 6q27 1 56 -12q29 -14 44 -38q4 -8 13 -10q26 -2 210 33q169 32 421 73.5t538.5 71t560 25.5t484.5 -63t311 -193z" />
    <glyph glyph-name="p.swsh" unicode="p__" horiz-adv-x="2918" 
d="M2943 403v0q15 -20 4 -38.5t-33 -23t-38 16.5q-60 163 -240.5 229.5t-433.5 62.5t-529.5 -51.5t-529 -112t-431.5 -120.5t-237 -76q-8 -2 -13 -4q-1 0 -2 -2q-59 -92 -102 -139q-47 -55 -105 -99q-29 -23 -68 -40q-17 -7 -37 -9q-21 -2 -40 4q-17 5 -30 18q-14 13 -12 32
q14 58 68 102q53 43 105 70q62 33 127 58l2 2q45 64 76 130q7 15 15 38q7 23 9 45t-10 34l-2 1l-2 1q-2 1 -3 2h-1q-1 0 -1 1v0v0q-5 2 -11 4q-43 7 -89 -22q-47 -28 -87 -70q-41 -42 -67 -74q-86 -106 -160 -238v-2v-1l-2 -10q-55 -377 -133 -750q-7 -25 -30 -30t-40 14v0
v1q-32 64 -26 140t22 143q0 4 1 8v1q38 164 101 320v1v0q13 82 26 165q38 247 82 493q7 26 27 31q20 6 37 -6t15 -39q-32 -179 -61 -358q0 -3 2 -4q1 -1 3 -1t3 2q51 92 114 177q64 85 134 135q71 51 144 39q11 -3 21 -7v0h1v-1q1 0 2 -1q4 -1 8 -3l5 -3q2 -1 5 -3v0h1
q50 -40 41 -110q-10 -70 -51 -146q-2 -2 0 -4t5 -2q14 5 59 19q106 36 331.5 102t514.5 127t587.5 82t551.5 -33t407 -218zM-98 -192v0q0 3 -2 4q-2 2 -4 1q-2 0 -3 -3q-27 -84 -41 -165q-7 -43 -7 -100q1 -3 2 -4q2 -1 4 0t3 3q25 132 48 264zM306 206v0q2 2 1 4q0 2 -2 3
t-4 -1q-21 -12 -40 -25q-59 -39 -99 -95q-1 -1 0 -3q0 -2 2 -3t4 0q19 10 37 24q54 42 101 96z" />
    <glyph glyph-name="q.swsh" unicode="q__" horiz-adv-x="3036" 
d="M3062 403v0q17 -20 5.5 -38t-33.5 -22.5t-38 15.5q-124 189 -341.5 253t-487.5 35.5t-550.5 -116t-529 -201t-423 -220t-233.5 -172.5q-15 -56 -33 -128t-32 -129q-1 -2 0 -3q10 -46 14 -85v-2v-7q10 -111 1 -223v-1q-1 -5 -1 -10q-3 -54 -22 -107q-4 -7 -8 -13
q-4 -7 -11 -13q-11 -11 -27 -13q-16 -1 -30 5q-41 19 -45 65t3 88q1 2 1 5v2q10 68 26 133q21 94 47 196q0 1 -1.5 5.5t-5.5 10t-13 8.5q-14 4 -22 3.5t-14 -2.5q-6 -3 -14 -3q-12 0 -22 6q-14 10 -17 25.5t6 30.5q7 17 173 196q36 148 67 295q28 127 41 256q0 4 1 8v0
q6 56 -7 104q-2 3 -3 5q-39 -17 -94 -91q-2 -2 -1 -4q0 -3 2 -5q19 -13 19 -32q-1 -20 -15 -32q-15 -13 -39 -7q-7 3 -15 6q-4 1 -7 -3q-32 -47 -57 -87q-24 -35 -38 -57q-5 -6 -9 -12q0 -1 -1 -1q-44 -69 -98 -133q-18 -21 -42 -39q-25 -18 -56 -14q-6 1 -12 3
q-59 31 -61 97t20 121q27 71 79 126q53 56 127 79q57 17 117 9q4 0 6 3q35 49 78 93q26 28 62 45q37 18 74 -2q4 -2 7 -5q0 -1 1 -1l1 -1l1 -1q37 -41 35 -116q-3 -76 -14 -136l-2 -10q0 -3 -1 -6q-38 -200 -93 -402q45 50 206.5 141t400 191.5t516.5 180.5t557 108t520 -26
t405 -222zM243 480v0q2 3 0 6q-2 4 -6 3q-87 -12 -147 -94q-46 -64 -52 -141q0 -18 3 -31h1v0q1 0 2 -1h1q1 0 2 -1q2 0 5 -1q35 32 63 74q3 3 5 7q2 2 4 5q43 60 83 121q18 26 36 53zM287 -227v0q5 -2 13 -5t16 -6.5t12 -7.5v2q1 2 1 3v0q3 12 6 25q1 3 2 7q1 3 3 11t5 17
q3 10 5.5 18.5t3.5 11.5q-9 -9 -22.5 -24.5t-26 -30.5t-18.5 -21zM330 -632v0q25 109 15 222v-3q-1 -2 -1 -4l-2 -8q-19 -85 -30 -171v-4q-1 -2 -1 -4q-4 -34 -4 -68h2t2 -1v0v0h1h1v0v0h1v0v0v0v0q2 0 5 -1q7 21 11 42z" />
    <glyph glyph-name="r.swsh" unicode="r__" horiz-adv-x="2892" 
d="M2916 403v0q13 -22 1.5 -40t-32 -22t-36.5 17q-54 163 -207.5 227.5t-371.5 59t-467 -50t-494 -100.5q-237 -53 -439 -88.5t-339.5 -28t-180.5 85.5q-23 43 -27 90q-1 5 -1 10q-1 16 -8 28v0v0v0v0v0v0v0v0h-1h-1v0h-3h-4h-1q-50 -22 -109 -135q-58 -113 -107 -239
q-48 -126 -68 -186q-10 -23 -29 -26q-20 -4 -35 9q-16 12 -14 37l10 58q6 33 13 75q5 32 12 70q14 85 29 170q9 52 16 94q4 27 8 50l10 59q7 26 27 31q20 6 37 -6t15 -38l-33 -195q0 -2 1 -3q2 -2 3 -1q2 0 3 2q23 47 56 100q33 54 72 92q40 39 83 41q22 0 39 -11
q18 -12 25 -33q6 -26 5 -52q0 -19 2 -37q7 -37 27 -67t54 -44q60 -19 121 -17q8 0 17 -1q64 0 185.5 24.5t282.5 62.5q231 55 503.5 108.5t539.5 70.5t481.5 -37.5t329.5 -213.5z" />
    <glyph glyph-name="s.swsh" unicode="s__" horiz-adv-x="2892" 
d="M2918 403v0q14 -21 3 -39.5t-32.5 -22.5t-37.5 17q-70 173 -264 239t-459 56t-548 -66t-533 -127t-413.5 -127.5t-189.5 -67.5q-102 -38 -199 -89q-3 -2 -4 -5t0 -6q17 -53 -16 -93t-81 -59q-28 -12 -59 -12h-1v0q-6 0 -15 4q-1 0 -1 1v0q-49 36 -11 80t109 82q3 3 4 6
q1 4 -2 8q-28 37 -57 74q-32 39 -63 81l-1 1q-23 30 -42 64q-19 33 -24 72q-5 47 20 86t63 61q46 28 106 37q60 10 110 -12q51 -27 41 -68q-10 -40 -53 -83q-44 -43 -93 -77q-49 -33 -75 -45q25 -37 53 -75q33 -46 65 -93q2 -3 5 -4t6 1q46 27 223 93.5t437.5 145
t558.5 140.5t586.5 78.5t521 -40.5t362.5 -216zM73 430v0q6 -2 14 2q32 18 85 55t91 77q39 39 28 64l-2 2q-27 21 -91 3q-63 -18 -110 -69q-46 -51 -23 -128q2 -4 8 -6zM167 77v0q28 29 29 56q0 6 -5 8q-4 2 -9 0q-23 -13 -54 -34t-52 -42q-21 -22 -13 -37q13 -12 45 4
q32 15 59 45z" />
    <glyph glyph-name="t.swsh" unicode="t__" horiz-adv-x="2687" 
d="M2722 402v0q18 -19 6.5 -37t-34 -23t-38.5 16q-117 189 -275 248.5t-344 21.5t-386 -142t-401 -241t-389 -276q-172 -127 -321.5 -229t-268 -156.5t-194.5 -35.5q-41 19 -66 52q-50 74 -60 170q-9 96 -4 184q14 213 56 422t104 413q-8 21 6 40q4 6 9 12q1 1 2 3v0
q27 83 57 165q-71 -4 -152 -8q-158 -7 -295 -16q-28 -1 -55 -3q-65 -6 -131 -4l-1 1h-1q-7 0 -16 3q-3 1 -6 3l-4 2q-4 3 -6 6q-5 5 -7 12q-2 10 1 20q8 17 25 17t26 -17q76 -17 155 -16q9 0 17 -1h3q161 0 342 13q59 4 112 7q28 77 90 218q61 142 136 269q74 127 139 164
q18 7 38 4q20 -4 30 -23q3 -8 3 -12q1 -8 1 -12v0q-4 -28 -14 -53q-1 -4 -3 -8q-11 -29 -22 -57q-108 -248 -242 -481q33 2 67 4q237 16 464 21q13 0 29 1q65 1 145 -3q79 -4 122 -27q9 -5 18 -17l4 -6l2 -8q1 -5 2 -9q0 -4 -1 -8q-4 -17 -17 -22t-25 2q-12 6 -14 23
q-27 15 -61 19v1h-1q-24 4 -50 7q-128 12 -257 11q-220 0 -440 -11q-40 -69 -84 -136q-33 -51 -72 -100q-3 -4 -8 -7q-42 -134 -77 -269q-6 -23 -18 -62q-24 -79 -55 -199q-31 -119 -47 -247q-16 -127 2 -231q9 -54 31 -106t58 -79q79 -41 191 4t251 148t300 236
q168 138 353 276.5t381.5 246t397 151.5t399 -7.5t388.5 -231.5zM1142 986q1 0 0 0v1v0v0v0v0v-1v0zM442 1416v0q-81 -148 -147 -304q110 194 202 396q-29 -45 -55 -92zM-446 1027v0v0v0l-2 2h-1v0v0h-1v0v0v0q1 0 1 -1l2 -1h1z" />
    <glyph glyph-name="u.swsh" unicode="u__" horiz-adv-x="2988" 
d="M3014 403v0q17 -19 5.5 -37.5t-34 -23t-37.5 16.5q-95 164 -256.5 231t-367 60.5t-432 -60.5t-450.5 -131.5t-422 -152.5q-216 -84 -373 -134t-223 -34q-9 1 -18 4q-17 7 -31 19q-7 6 -12 14q-41 63 -32 157q0 5 -5 7q-4 1 -7 -3q-41 -57 -88 -109q-30 -33 -69 -62
q-40 -29 -88 -25q-2 0 -5 1v0h-1q-43 12 -64 50q-26 58 -18 128q7 70 25 128q13 42 33 82q7 14 17 28t26 17q15 2 29 -7q14 -10 17 -26t-7 -30q-31 -51 -50 -134q-20 -84 -5 -141q1 -4 3 -7v-1v0q3 -7 9 -10q1 -1 3 -1v0v-1h1v0v0h3q55 18 120 96q64 78 99 130q31 44 60 90
q10 15 25 14q15 0 25 -11t6 -28q-2 -6 -3 -12l-4 -10q-25 -76 -40 -154q-7 -38 -6 -84q1 -23 9.5 -45.5t24.5 -36.5q5 -3 11 -6l12 -4h1v0q66 -8 203 37.5t325 118.5q234 92 512 184.5t563.5 139t540 0.5t440.5 -232z" />
    <glyph glyph-name="v.swsh" unicode="v__" horiz-adv-x="2829" 
d="M2859 403v0q14 -22 3 -40t-32.5 -22t-36.5 17q-66 166 -216 230.5t-356.5 57t-441.5 -56.5t-469 -109q-217 -56 -411 -96.5t-341.5 -42.5t-227.5 59q-42 -100 -89 -198q-5 -8 -9 -17q-25 -51 -63 -109q-39 -59 -85 -70q-2 -1 -5 -1v0h-3h-2q-48 4 -67 43q-20 39 -22 90
q-3 51 -1 90v10q8 115 25 228q1 2 1 4t1 4q2 16 4 34q3 18 4 31q5 27 25 34q20 6 38 -4q17 -11 17 -38q-4 -27 -12 -74q-18 -101 -29 -219q-12 -118 15 -165v0v0h1v0v0v0v0q2 0 4 2q17 13 31 32q43 58 76 124q59 116 111 237v1v4q3 46 25 86t49 76q0 1 1 2q3 5 6 9
q11 11 24 9q12 -2 19 -12t2 -25q-22 -48 -46 -107q-7 -17 -13 -31q-4 -11 -8 -21q-5 -11 -9 -21q31 -39 94 -56.5t126 -21t94 -0.5q116 11 262.5 45t312.5 79q221 60 455.5 112t456 64.5t406 -44t306.5 -213.5z" />
    <glyph glyph-name="w.swsh" unicode="w__" horiz-adv-x="3077" 
d="M3105 403v0q15 -21 3.5 -39t-33 -22.5t-37.5 16.5q-109 169 -281 234t-382 57t-435.5 -57t-443.5 -108q-206 -56 -383.5 -94t-307.5 -32q-95 9 -181 47q-13 5 -24 12q-1 -28 -4 -48q-6 -68 -35 -137t-101 -90l-5 -2h-7q-69 0 -109 71q-41 72 -54 156q-14 -26 -44 -84
q-27 -51 -53 -100q-26 -50 -39 -70q-2 -3 -4 -7q-1 -2 -3 -3q-19 -32 -48 -63q-28 -31 -64 -33q-3 0 -7 1q-59 12 -66 97q-6 84 18 196q25 111 60 207q36 96 61 131q17 21 37 17q21 -3 32 -21q10 -17 -3 -41v0v0q-30 -47 -68 -154q-39 -107 -62 -215q-22 -108 -6 -158v-2h1
q1 -2 1 -3q1 -1 3 -2h1h1v0h1v0v0v0q31 6 75 80t85 166q42 93 67 154q14 33 19 44q11 20 30 24q19 3 36 -7q16 -11 18 -34v-2v-2v0v0v-2v-1v-3q-2 -56 13 -139q15 -82 52 -121q6 -4 10 -5h3v0h2l2 1q49 14 72 91t26 165q-46 68 -18 163q7 17 21 17q14 1 25 -12
q17 -28 24 -78q6 -50 6 -103q51 -38 127 -55q111 -24 296 9t414 90q220 54 455 100.5t461.5 56.5t420 -46.5t329.5 -207.5z" />
    <glyph glyph-name="x.swsh" unicode="x__" horiz-adv-x="2810" 
d="M2842 403v0q16 -20 4.5 -38.5t-33 -23t-37.5 16.5q-53 157 -201.5 221.5t-359.5 60.5t-451.5 -54.5t-477.5 -124t-436.5 -147.5t-329.5 -125q-97 -39 -138 -53q-126 -42 -196 2.5t-132 157.5q-10 -14 -19 -28q-81 -113 -126 -244q-5 -16 -19 -24t-31 -3q-19 6 -26 23
q-7 18 2 36h1q74 124 157 241l36 50q-25 61 -40 127q-17 74 -19 152q1 17 12 29q11 11 29 12q19 -1 31 -15q11 -14 8 -33q-9 -67 -1 -135q5 -45 16 -89q75 99 165 187q40 38 88 71q14 9 30 6t25 -17q11 -16 6 -34q-5 -17 -23 -25q-49 -23 -92 -58q-101 -83 -180 -188
q29 -73 69.5 -125t90.5 -68q50 -13 179.5 30.5t317.5 116.5q188 75 412 154.5t461.5 139t466 73.5t424.5 -43.5t337 -211.5z" />
    <glyph glyph-name="y.swsh" unicode="y__" horiz-adv-x="3102" 
d="M3133 403v0q14 -22 2.5 -40t-32.5 -22t-36 17q-70 148 -251 217t-432 74.5t-530.5 -39t-545 -124.5t-475.5 -181t-324 -210q-19 -79 -42 -161.5t-61 -202.5q-79 -248 -174 -465t-186 -287q-16 -12 -38 -14q-21 -3 -38 10q-28 27 -29 87q-1 61 12 124q12 63 21 100
q61 230 181 457q121 228 301 401q2 3 3 6q12 51 25 102q35 135 58 246q24 110 19 164v2q-1 9 -4 19t-13 12q-47 -2 -96 -69t-102 -160q-41 -72 -85 -138q-43 -66 -89 -106q-46 -41 -95 -37q-51 8 -72 47q-20 39 -17 87q6 70 24 134q1 4 2 7l4 14v0q1 6 2 11q6 23 8 45v2v0v0
v0v0q-2 26 16 38q17 12 37 6t26 -31q2 -18 0 -28v-1v-1q-2 -21 -14 -67q-10 -38 -19 -78q-9 -41 -8 -71t18 -37h4v-1h1q35 -2 76 35q41 36 79 88t65 95q13 19 22 32q5 8 10 15q37 57 78 111q26 34 64 62t83 6q6 -4 11 -9l6 -6q24 -34 20 -114q-3 -80 -20 -170
q-8 -38 -19.5 -88.5t-21.5 -92.5q-6 -22 -9 -36q139 125 407.5 227.5t598.5 166t655 73.5t576.5 -49.5t362.5 -203.5zM423 12v0q1 5 -2 9t-8 5q-5 0 -9 -4q-115 -135 -199 -292q-84 -158 -138 -315q-49 -140 -68 -286q-4 -36 -3 -70q1 -13 3 -25q2 -6 7 -8t10 1
q58 41 130 194q73 152 146 363q72 211 131 428z" />
    <glyph glyph-name="z.swsh" unicode="z__" horiz-adv-x="2646" 
d="M2679 403v0q16 -20 4.5 -38t-33.5 -23t-37 16q-96 162 -311 220.5t-491 43t-557 -78.5t-508.5 -145.5t-344.5 -157.5q64 -81 53 -174q-11 -92 -71 -170q-132 -171 -333 -245q-42 -14 -86 -21q-44 -6 -89 5q-67 19 -89 85q-9 41 7 80q15 39 37 72q86 114 213 206
q127 91 254 155q-39 26 -94 43t-102 11q-14 -7 -27 1q-15 10 -17 24t5 25q22 33 44 67v0l-73 -48q-17 -9 -31 -1q-13 8 -16 23q-3 16 12 29l22 16q11 8 24 17q14 11 31 23q16 12 31 23q17 12 33 24q30 22 51 38q2 1 3 2l22 17q19 12 36 5t23 -24t-6 -35q-38 -52 -78 -111
q-17 -23 -32 -45q117 -9 208 -82v0q154 75 391 153.5t513.5 136t549 71.5t498.5 -38.5t361 -194.5zM380 57v0q13 68 -33 131q-3 4 -11 5q-8 2 -16 3q-8 0 -13 -2q-11 -6 -23 -13q-117 -63 -227 -148q-109 -84 -184 -190q-17 -26 -30 -59t1 -61q15 -25 46 -33q83 -12 177 35
t157 101q52 43 98 103q45 61 58 128z" />
    <glyph glyph-name=".notdef" horiz-adv-x="1024" 
d="M100 0v1434h824v-1434h-824zM150 50h724v1334h-724v-1334z" />
    <glyph glyph-name="space" unicode=" " horiz-adv-x="550" 
 />
    <glyph glyph-name="space" unicode="&#xa0;" horiz-adv-x="550" 
 />
    <glyph glyph-name="exclam" unicode="!" horiz-adv-x="575" 
d="M441 1439v0q18 -5 26 -20t3 -32q-101 -305 -179 -617l-2 -8q-31 -120 -52 -243q-5 -32 -7 -63q0 -5 -1 -10q-1 -16 1 -31q10 -12 5.5 -26.5t-23.5 -16.5q-5 0 -9 1.5t-8 3.5q-1 1 -3 2q-2 3 -3 5l-2 2q-3 7 -4 10q-3 27 3 53l2 12q4 26 9 51l2 14q62 317 135 631
q12 51 29.5 126t29.5 126q4 16 17.5 24.5t30.5 5.5zM142 168v0q18 0 37.5 -26t19.5 -62t-16 -47.5t-34 -11.5q-17 0 -33 11.5t-16 47.5t12.5 62t29.5 26z" />
    <glyph glyph-name="quotedbl" unicode="&#x22;" horiz-adv-x="438" 
d="M177 996v0q25 -3 34.5 -24t-3.5 -41q-38 -57 -65 -119q-17 -36 -31 -74q-5 -9 -13 -10t-13.5 5t-3.5 15q37 102 51 210q2 17 14.5 28t29.5 10zM314 996v0q25 -3 34.5 -24t-3.5 -41q-38 -57 -65 -119q-18 -36 -32 -74q-4 -9 -12 -10t-13.5 5t-3.5 15q37 102 51 210
q1 17 14 28t30 10z" />
    <glyph glyph-name="numbersign" unicode="#" horiz-adv-x="1407" 
d="M1325 859v0q9 0 15 -6t7 -15q0 -9 -6.5 -15.5t-16.5 -5.5q-140 12 -281 11l-72 -158q-8 -19 -17 -38l-44 -100l70 2q109 2 216 6q9 0 15 -5.5t7 -14.5q0 -10 -7 -16.5t-17 -5.5l-68 6q-112 8 -224 9q-103 -227 -180 -464q-6 -16 -20 -24t-31 -3q-19 6 -25.5 23.5
t2.5 35.5q42 73 80 148q69 140 131 284q-183 -2 -364 -23q-98 -216 -170 -441q-6 -17 -20 -24.5t-30 -2.5q-19 6 -26 23.5t2 35.5q41 69 76 140q66 130 123 263q-3 0 -6 -1h-6q-171 -24 -338 -67q-21 -3 -30.5 10t-5.5 29t25 20q185 22 373 37q60 139 118 279
q-144 -24 -285 -62q-16 -4 -30 4t-19 25q-4 18 6 33t29 17q159 18 319 31q53 129 104 259q29 74 56 149q6 16 20.5 22.5t30.5 1.5q18 -7 24 -23t-2 -33q-93 -184 -179 -372q42 3 84 5q132 7 267 8q61 147 119 296q31 78 60 156q6 16 20.5 23t30.5 1q17 -7 23.5 -23t-1.5 -33
q-105 -208 -201 -420h70q101 1 199 3zM868 533v0q64 147 125 294q-181 -3 -360 -28q-36 -80 -72 -159q-8 -18 -16 -37q-20 -44 -39 -88q68 5 136 8q111 6 225 8v1q1 0 1 1z" />
    <glyph glyph-name="dollar" unicode="$" horiz-adv-x="790" 
d="M596 1273v0q81 -19 117.5 -84t16.5 -145q-8 -28 -27 -54q-12 -17 -31 -20t-36 8q-19 14 -20 37t17 39q20 20 24.5 50t-6.5 55q-21 44 -70 59q-4 2 -8.5 3t-8.5 2l-6 2q-7 1 -12 2h-3q-86 -322 -155 -650q34 -24 68 -47q102 -66 170.5 -139t47.5 -174l-3 -11q-2 -3 -3 -7
q0 -2 -1 -3q-47 -112 -158 -149t-226 -19q-13 -79 -26 -159q-2 -10 -10 -16t-19 -5q-11 2 -17 11t-4 20q18 78 36 157q-65 15 -121 54t-73 107q-9 52 11 101q6 15 21 21.5t31 0.5q16 -7 22 -22.5t-1 -31.5q-21 -42 -2 -82q20 -34 54 -54.5t72 -31.5q50 226 98 454
q-60 45 -109 97t-75 116l-3 10q-3 7 -5 14q-1 4 -2 7q-2 7 -3 14q-1 4 -2 7l-3 21q-8 107 34 205.5t124 166.5q86 68 196 72q16 81 31 158q6 21 22 24.5t29.5 -7t9.5 -31.5q-21 -73 -41 -146q4 -1 9 -2q4 0 7 -1q5 0 11 -1t11 -3zM628 229v0q19 79 -41.5 141.5t-154.5 125.5
q-26 19 -53 39q-46 -223 -85 -446q94 -19 190 6.5t138 116.5q1 2 1 3l2 6zM364 595v0q5 24 10 47q22 107 44 212q12 54 24 111q27 132 55 267h-6h-6q-6 0 -13 -1q-91 -10 -161 -71.5t-107.5 -148.5t-29.5 -174l2 -18q1 -4 2 -7q1 -6 2 -11q2 -4 3 -7q1 -5 3 -11l3 -9
q21 -49 64 -88.5t91 -75.5q10 -7 20 -15z" />
    <glyph glyph-name="percent" unicode="%" horiz-adv-x="978" 
d="M934 1179v0q26 -26 11.5 -52t-39.5 -50q-15 -15 -26 -28l-9 -10t-20.5 -23t-20.5 -23l-9 -10q-55 -62 -165 -174q-120 -121 -253.5 -265t-225 -272t-88.5 -203q4 -4 11 -12q9 -10 19.5 -22.5t16.5 -24.5t1 -21q-16 -15 -32.5 -5t-23.5 26q-21 57 22.5 154.5t124 213
t170.5 227t162 196.5q53 64 83 101q56 66 115 135q30 34 59 68q13 13 26 32q19 27 41 44t50 -2zM130 696v0q-33 41 -34.5 93t16.5 99q-6 61 24.5 112.5t82.5 81.5q61 31 113.5 7.5t57.5 -93.5q2 -41 -19.5 -103.5t-59.5 -120t-85 -83t-96 6.5zM234 1005v0q-22 -21 -39.5 -51
t-3.5 -54q12 -20 4.5 -37.5t-25 -24.5t-36.5 5q-4 -31 1 -66.5t32 -54.5q30 -2 54 20t40 47q20 26 43.5 88t23.5 111.5t-51 40.5q-24 -6 -43 -24zM854 481v0q17 -54 -4 -127.5t-65 -137t-95 -86.5q-61 -22 -89.5 12.5t-31.5 91t15 97.5q-6 61 25 112.5t83 81.5
q43 24 92.5 14.5t69.5 -58.5zM800 407v0q5 51 -17 63t-52.5 -4t-49.5 -49q6 2 11.5 -1t6.5 -10q1 -9 -5 -12.5t-14 -4.5q-8 -2 -14 -6q-4 -9 -5 -21t3 -19q12 -19 4.5 -37t-25 -25t-36.5 5q-4 -31 1 -66.5t32 -54.5q30 -1 53.5 20.5t40.5 46.5q52 81 66 175z" />
    <glyph glyph-name="ampersand" unicode="&#x26;" horiz-adv-x="1078" 
d="M989 431v0q16 -7 22.5 -21.5t0.5 -30.5q-24 -59 -63 -106q-87 -101 -217.5 -168t-271.5 -89q-12 -73 -24 -147q-2 -10 -10 -16t-19 -5q-11 2 -17 11t-4 20q15 65 30 132q-49 -5 -97 -3q-70 3 -135 35t-93 101l-3 9q-28 97 3.5 188.5t96 170t135.5 137.5q63 54 135 96
q-30 31 -51 70q-75 149 -2 298l9 16q3 5 6 11q2 2 3 5q8 13 18 25l4 6q22 30 52 54l7 6q3 1 5 3q2 1 3 2q3 2 5 3q5 4 11 7q7 5 16.5 9.5t17.5 7.5q60 25 125 20q15 77 29 152q6 21 22.5 24.5t29.5 -7t9 -31.5q-21 -74 -41 -147q39 -12 72 -35q2 -2 5 -4q5 -3 9 -7
q48 -42 66 -100.5t15 -121.5q0 -15 -10 -25t-25 -10q-20 0 -30 16t-3 34h1q2 4 4 9q1 3 2 5q0 1 1 3t1 5q1 3 2 7q3 8 4 15l2 16q3 31 -5 62q-5 15 -12 29l-8 14l-10 12q-37 41 -87 52q-156 -582 -260 -1176q93 19 182 67.5t162 105.5q83 63 123 156q7 16 21.5 22.5
t30.5 0.5zM466 1084v0q-56 -135 26 -256q25 -35 61 -55q18 -10 22 -27l22 108q12 55 24 111q30 146 60 293q-52 -3 -97 -33q-6 -4 -13 -9t-12 -9l-8 -6l-4 -4l-2 -2q-2 -2 -4 -3l-5 -6q-22 -22 -40 -48l-4 -6q-7 -10 -12 -20q-2 -3 -3 -6q-2 -4 -5 -8zM167 88v0
q42 -24 98 -27.5t103.5 3.5t63.5 15q64 289 125 582q5 26 11 52q-8 -11 -22 -15q-87 -26 -180 -105.5t-162.5 -180.5t-86 -190t49.5 -134z" />
    <glyph glyph-name="quotesingle" unicode="'" horiz-adv-x="301" 
d="M177 996v0q25 -3 34.5 -24t-3.5 -41q-38 -57 -65 -119q-18 -36 -32 -74q-4 -9 -12 -10t-13.5 5t-3.5 15q37 102 51 210q1 17 14 28t30 10z" />
    <glyph glyph-name="parenleft" unicode="(" horiz-adv-x="637" 
d="M629 1452v0q-242 -301 -374.5 -695.5t-151.5 -779.5q-5 -114 4 -227q0 -8 -4.5 -13.5t-12.5 -6.5q-8 0 -13.5 4.5t-6.5 12.5q-10 116 -7 232q22 587 264 1123q96 214 240 401q11 13 27 15t30 -9q13 -11 14.5 -27t-9.5 -30z" />
    <glyph glyph-name="parenright" unicode=")" horiz-adv-x="639" 
d="M569 1480v0q10 -116 7 -232q-21 -587 -263 -1123q-96 -215 -241 -402q-11 -13 -26.5 -15t-29.5 9q-13 11 -14.5 27.5t9.5 29.5q242 301 374.5 695.5t151.5 779.5q5 114 -4 227q0 8 4.5 13.5t12.5 6.5q7 0 12.5 -4.5t6.5 -11.5z" />
    <glyph glyph-name="asterisk" unicode="*" horiz-adv-x="509" 
d="M425 864v0q4 -21 -12 -32.5t-34 -1.5q-45 25 -96 34q23 -28 50 -53q13 -12 28 -23q10 -8 11.5 -19.5t-5.5 -21.5q-8 -10 -19.5 -11.5t-21.5 5.5q-7 5 -10 13q-13 32 -33 60l-30 42q-12 -56 -9 -113q0 -14 -10 -18.5t-19.5 1t-8.5 20.5v0q8 41 15 81l4 22q-39 -29 -75 -62
q-9 -8 -20.5 -7.5t-19.5 9.5q-10 10 -7 24t16 20q37 19 80 44q-42 5 -85 1q-12 -1 -21.5 6t-10.5 19q-2 17 11 27t29 3v0q46 -19 94 -31q-31 36 -65 71q-11 13 -5 24.5t18.5 13.5t21.5 -11q4 -8 9 -15q20 -33 43 -63q2 8 3 16q8 40 15 81q2 12 11 19t21 5q16 -3 22 -16.5
t-2 -27.5q-24 -39 -39 -82q16 9 30.5 17t24.5 14q15 8 29 18q8 5 16.5 3t14.5 -9q6 -10 2 -20.5t-16 -13.5q-8 -2 -16 -5q-39 -13 -74 -35q19 -3 39 -5q34 -4 68 4q13 3 23.5 -3t14.5 -18z" />
    <glyph glyph-name="plus" unicode="+" horiz-adv-x="849" 
d="M764 562v0q11 -1 18 -8.5t6 -18.5t-8 -17.5t-17 -6.5q-159 1 -317 -1q-13 -58 -25 -116q-25 -121 -47 -222q-4 -17 -17.5 -26t-30.5 -6q-17 4 -25.5 17.5t-5.5 30.5q4 13 10 26q4 10 7 20l4 10q5 15 10 29q38 116 62 237q-144 -3 -287 -6q-17 0 -28.5 11t-12.5 28
q0 17 11.5 28.5t29.5 12.5q150 -3 300 -7q2 11 4 23q3 17 7 41.5t7 41.5q13 83 22 168q3 16 15.5 26.5t29.5 8.5q18 -2 28.5 -17t5.5 -33q-30 -117 -61 -261q153 -5 305 -13z" />
    <glyph glyph-name="comma" unicode="," horiz-adv-x="387" 
d="M223 239v0q14 -73 -36 -121.5t-117 -58.5q-5 -1 -7.5 2.5t-2.5 7.5t5 7q48 23 77 65q15 18 14 35t-7 32q-7 17 -7 32t19 29q20 11 39 1.5t23 -31.5z" />
    <glyph glyph-name="hyphen" unicode="-" horiz-adv-x="771" 
d="M693 412v0q8 -1 13 -6t5 -13q0 -7 -5.5 -12t-12.5 -6h-163q-68 0 -137 -1q-149 1 -297 -10q-21 0 -28.5 14.5t-1.5 29.5t26 18q214 5 427 -7q87 -4 174 -7z" />
    <glyph glyph-name="hyphen" unicode="&#xad;" horiz-adv-x="771" 
d="M693 412v0q8 -1 13 -6t5 -13q0 -7 -5.5 -12t-12.5 -6h-163q-68 0 -137 -1q-149 1 -297 -10q-21 0 -28.5 14.5t-1.5 29.5t26 18q214 5 427 -7q87 -4 174 -7z" />
    <glyph glyph-name="period" unicode="." horiz-adv-x="309" 
d="M102 268v0q18 0 37.5 -26t19.5 -62t-16 -47.5t-34 -11.5q-17 0 -33 11.5t-16 47.5t12 62t30 26z" />
    <glyph glyph-name="slash" unicode="/" horiz-adv-x="825" 
d="M699 1320v0q18 10 34.5 4.5t24 -21.5t-0.5 -34v0q-289 -570 -596 -1129q-34 -62 -68 -125q-6 -9 -14.5 -8.5t-13.5 7t-1 16.5l62 126q268 526 519 1060q-7 4 -12 12q-9 14 -6 29.5t17 25.5l55 36v1z" />
    <glyph glyph-name="zero" unicode="0" horiz-adv-x="734" 
d="M677 1107v0q17 -107 3 -213.5t-39 -209.5q-18 -75 -55.5 -188.5t-94.5 -228t-131 -191t-163 -76.5q-60 11 -90.5 66t-42.5 109q-24 104 -23 210q-1 160 49 311q7 21 16 42q1 110 39 219.5t100 197.5q51 75 130 121t172 18q6 -2 12 -5q53 -25 81 -76.5t37 -105.5zM585 697
v0q22 98 34.5 198t-5.5 199q-8 41 -26 78t-55 56h-2q-1 1 -2 1l-2 1q-64 17 -116.5 -13.5t-92 -83.5t-63.5 -105q-36 -73 -55 -153q42 38 99 52q9 1 13 -4.5t3 -12t-10 -9.5q-69 -20 -115 -78q-5 -38 -6 -77q0 -48 13 -89q5 -16 -2 -30.5t-22 -20.5q-17 -5 -31 2t-21 22
q-5 17 -8 33q-28 -100 -33.5 -202t5.5 -177q3 -35 16 -91t38.5 -101t65.5 -49h2h3q74 10 136.5 86.5t111.5 184.5t81.5 212.5t45.5 170.5z" />
    <glyph glyph-name="one" unicode="1" horiz-adv-x="440" 
d="M368 1268v0q16 19 35 17t30.5 -17t3.5 -38q-57 -145 -106 -293q-50 -148 -96 -297q-57 -187 -105 -376q-19 -76 -33 -152q-1 -5 -2 -11q-4 -22 -5 -43q7 -9 5.5 -20t-13.5 -18l-4 -2q-1 0 -2 -0.5t-3 -0.5q-3 0 -7 0.5t-8 1.5q-6 3 -10 8q0 1 -1 2t-1 2q-2 2 -3 5t-1 5
q-2 31 6 61q2 10 4 19q22 101 48 200q4 15 7 29q91 354 193 704q-32 -36 -69 -66q-42 -33 -90 -57q-15 -8 -30.5 -3t-23.5 20q-7 15 -2.5 30.5t19.5 23.5q75 38 129 97t103 126q16 22 32 43v0zM91 51v0v0v0v1v-1v0v0z" />
    <glyph glyph-name="two" unicode="2" horiz-adv-x="973" 
d="M907 208v0q16 -8 21 -23t-2 -31q-10 -17 -28.5 -21t-33.5 8q-73 62 -163 95q-153 55 -311 18q-74 -86 -158 -163l-8 -6q-30 -28 -71 -52.5t-79 -11.5l-4 2q-24 14 -27 39t10 48q28 46 72.5 78.5t92.5 54.5q52 25 108 40q30 35 59 70q63 80 157 214.5t182 280t135.5 258
t17.5 148.5q-44 37 -144 -2.5t-198.5 -145t-138.5 -266.5q-7 -25 -27 -31t-37 5.5t-15 37.5q24 134 110.5 237.5t205.5 165.5q53 28 115 41.5t120 -10.5q63 -32 60 -112.5t-48 -184.5t-109 -210t-122.5 -190t-88.5 -123q-61 -82 -127 -161q41 4 81 5q155 0 299 -59
q48 -19 94 -43zM105 71v1v-1v0zM189 140v0q33 30 64 62q-47 -24 -88 -58q-34 -26 -56 -61q4 1 8 3q38 22 72 54z" />
    <glyph glyph-name="three" unicode="3" horiz-adv-x="812" 
d="M677 762v0q71 -33 83 -100.5t-13.5 -149t-66 -155t-74.5 -116.5q-51 -68 -114 -124t-142 -87q-83 -31 -156.5 -8t-115.5 104q-38 82 -32 172q2 61 28 117q14 22 34.5 21.5t33.5 -16.5t4 -41q-27 -61 -23.5 -157t43.5 -148q30 -32 71 -35.5t79 11.5q72 30 134.5 101
t111.5 155t80 154q19 42 35 105.5t-6 104.5q-29 29 -85.5 27t-115 -20t-91.5 -36v0q-16 -8 -31 -3t-24 19q-10 24 4 43q11 14 21 28q37 48 73 97q5 6 10 14q35 46 84.5 119.5t84.5 146.5t26 117q-2 6 -7 10q0 1 -1 1q-2 1 -3 2q-5 3 -11 5q-29 7 -60 -3q-33 -11 -65 -31
q-97 -63 -154 -164q-38 -64 -36 -136q1 -17 -9 -30t-27 -15q-22 -2 -36 14.5t-8 37.5q23 81 72.5 151t109.5 127q33 32 77.5 64t93.5 44.5t95 -15.5q36 -29 39 -70.5t-11.5 -85t-30.5 -77.5q-78 -154 -182 -290q111 31 204 1z" />
    <glyph glyph-name="four" unicode="4" horiz-adv-x="884" 
d="M839 1078v0q-83 -261 -148 -527q-13 -56 -26 -113q10 2 20 3h8q31 4 65 1q5 -1 11 -2.5t12 -4.5l8 -6l2 -1q1 -2 3 -3q4 -5 7 -10q10 -24 -2 -40.5t-32.5 -18t-35.5 19.5q-21 8 -45 11h-2q-14 2 -29 3q-39 -187 -66 -376q-3 -17 -16 -26.5t-30 -8.5q-18 3 -27.5 17.5
t-5.5 32.5v0q44 180 85 364q-82 0 -164 -9q-127 -13 -253 -38q-42 -9 -84 -20q-27 -5 -40.5 15.5t1.5 43.5l10 12v0q101 89 186 196q173 214 307 455l10 20q54 91 82 190v2q1 2 1 4v2v3v1v0q-8 23 4.5 38.5t32.5 16.5t35 -20q3 -5 5 -11l2 -10q1 -6 1 -11q0 -16 -2 -29
q-13 -57 -37 -107q-91 -193 -212 -368q-129 -197 -292 -367q205 2 410 29h4h2q45 202 95 401q33 133 63 267q4 17 17.5 25.5t29.5 5.5q18 -5 26.5 -19.5t3.5 -32.5zM653 1265v0q0 2 -1 4q0 -2 1 -4zM740 370v0q1 1 0 1.5t-2 1.5q-3 2 -6 3v0v-1l0.5 -0.5t1.5 -0.5v-1
q1 0 2 -1l1 -1v0q1 0 1.5 -0.5l0.5 -0.5h0.5h0.5z" />
    <glyph glyph-name="five" unicode="5" horiz-adv-x="846" 
d="M764 1260v0q21 3 31.5 -10t7 -29t-23.5 -23q-2 0 -4 -1q-103 -10 -207 -10q-62 2 -126 8q-5 1 -10 1q-39 -100 -78 -203q-34 -93 -69 -182q133 9 256 -45q120 -60 151.5 -166t-4.5 -230q-69 -226 -284 -323q-51 -21 -107.5 -27t-110.5 14q-131 59 -144 202
q-2 34 5.5 67.5t30.5 60.5q20 17 39.5 10t26.5 -26.5t-10 -40.5q-16 -32 -11.5 -72t24.5 -70q24 -36 66 -55l4 -2q110 -30 207 14.5t164 130t85 181.5q14 69 -3 134q-26 74 -104.5 112t-172 47t-163.5 -2v0q-25 -4 -39 14.5t-4 41.5q28 57 56 116q14 31 34 74.5t41 87.5
q20 44 35 75q15 33 31 66q-11 1 -23 1q-17 1 -28 13t-11 29q1 22 18.5 33t37.5 3q12 -4 23 -9q12 -4 23 -7q7 1 13 -2q3 -1 5 -3q160 -40 322 2z" />
    <glyph glyph-name="six" unicode="6" horiz-adv-x="744" 
d="M695 1273v0q9 -14 6.5 -30t-16.5 -26q-111 -85 -217 -222.5t-186 -285.5q11 4 23 8q96 33 191 11.5t144 -118.5q40 -97 14 -210t-94 -210.5t-155 -149.5q-76 -45 -152 -35.5t-134 79.5q-66 93 -59 210.5t48 229.5q-11 -10 -25.5 -10.5t-26.5 8.5q-16 14 -15 34t18 32
q50 34 102 64q132 279 340 507q61 68 138 124q15 9 30.5 6.5t25.5 -16.5zM493 695v0q-61 12 -126 -3.5t-119 -47.5q-33 -65 -55 -125q-24 -59 -41.5 -133t-12 -145t51.5 -123q19 -20 42 -31q55 -22 108.5 1t94.5 60q78 70 133.5 168t56.5 204q-1 64 -35.5 111.5t-97.5 63.5z
" />
    <glyph glyph-name="seven" unicode="7" horiz-adv-x="741" 
d="M739 1288v0q21 5 35 -6t16 -29t-14 -33q-85 -83 -153 -181l-8 -12q-225 -318 -401 -665q-11 -22 -22 -45q-50 -92 -78 -191v-4q-5 -19 -4 -38q17 -13 16 -32t-15.5 -31.5t-37.5 -6.5q-17 8 -25 23.5t-5 31.5q5 33 19 61q2 6 5 12q120 281 272 547q127 229 272 447l2 4
q16 22 31 43q-171 -38 -346 -40q-72 -2 -143 16q-12 3 -25 10q-15 8 -19.5 23.5t2.5 30.5q8 15 23.5 20t31.5 -3q27 -11 59 -14q35 -3 72 -3q223 5 440 65v0zM114 73v0q0 4 -4 9q1 -6 2 -10q0 -1 0.5 -1.5t1 0t0.5 2.5z" />
    <glyph glyph-name="eight" unicode="8" horiz-adv-x="827" 
d="M553 787v0q93 -78 158 -178.5t65 -225.5q-11 -144 -117 -259.5t-251 -130.5q-126 -2 -226.5 74t-130.5 198q-5 21 -6 43q-1 1 -1 2v14q-4 83 17 163l8 26l2 6l6 15q1 3 2 5q2 6 5 11l7 15q5 9 12 20q2 5 5 9t6 9q2 2 3 5q7 10 15 19q3 4 6 7q22 25 49 46q10 8 20 14
q4 3 7 5q8 4 16 9l6 3l8 4q30 14 63 22l16 4l17 3q16 2 33 2q16 1 31 0q19 19 38 39l-28 22q-88 64 -148.5 127.5t-57.5 135.5l1 11q1 6 2 11q30 91 119 137t179 58q60 10 132.5 3t117.5 -54q2 -2 4 -5l6 -10q0 -1 1 -2q3 -6 5 -12q0 -2 1 -3q1 -5 2 -9q9 -58 -27 -132
t-91.5 -147t-106.5 -129zM323 981v0q63 -63 135 -117q16 -12 33 -26q2 3 12 13q32 33 98.5 106t117 146t34.5 106q-22 22 -88.5 28.5t-147.5 -7.5t-146.5 -52t-85.5 -104l-1 -5v-5q-1 -24 11 -44.5t28 -38.5zM561 685v0q-27 25 -56 49q-4 -5 -9 -9q35 -15 65 -40zM405 51v0
q119 14 208.5 114t97.5 219q-2 93 -43.5 166t-105.5 133q7 -9 4 -17.5t-11 -12t-18 3.5q-26 22 -58 35q-1 0 -3.5 1t-4.5 1q-2 1 -3 1q-67 -70 -144 -132q-14 -10 -29.5 -8t-26.5 15q-10 13 -8.5 29t14.5 27q46 37 90 80l-18 -2l-15 -3l-14 -3q-28 -8 -55 -21l-6 -3
q-4 -2 -7 -4q-6 -4 -12 -7q-4 -3 -7 -5q-9 -6 -17 -12q-23 -18 -41 -41l-6 -6q-6 -8 -12 -17q-2 -2 -3 -5q-3 -3 -5 -7t-5 -8l-9 -18l-6 -13q-2 -5 -4 -9q-1 -3 -2 -5l-5 -14q-1 -3 -2 -7q-4 -11 -6 -21q-18 -73 -13 -149v-11q0 -2 1 -3q1 -18 5 -35q27 -103 113 -166
t192 -60z" />
    <glyph glyph-name="nine" unicode="9" horiz-adv-x="854" 
d="M733 1251v0q5 27 25 34t38 -4t17 -38v-1v0v0v0v-1l-1 -1q-29 -226 -74.5 -449.5t-129.5 -436.5q-41 -101 -107.5 -196t-171.5 -136q-78 -22 -132 18t-83 109.5t-29 136.5q-3 63 18 126q5 16 19.5 23.5t31.5 2.5q18 -7 24.5 -24t-2.5 -34q-22 -43 -26 -95
q-4 -61 18.5 -123.5t78.5 -91.5q59 -18 116.5 23.5t91.5 88.5q107 154 166.5 376.5t86.5 444.5q-92 -135 -216 -244t-234 -143q-60 -18 -115 -1t-83 76q-20 52 -10 103.5t33 98.5q43 90 130 183.5t194 153t212 48.5q36 -6 69 -24q22 -16 20 -36.5t-19 -32.5t-41 0
q-58 28 -127 6t-132 -67.5t-104 -87.5q-50 -51 -101 -126t-75 -142q-20 -65 5.5 -100t95.5 -17q95 31 210.5 137t205 235t107.5 228v0z" />
    <glyph glyph-name="colon" unicode=":" horiz-adv-x="318" 
d="M103 248v0q17 0 36.5 -25.5t19.5 -61.5t-16 -47.5t-33 -11.5q-18 0 -34 11.5t-16 47.5t12.5 61.5t30.5 25.5zM202 790v0q17 0 36.5 -25.5t19.5 -61.5t-16 -47.5t-33 -11.5q-18 0 -34 11.5t-16 47.5t12.5 61.5t30.5 25.5z" />
    <glyph glyph-name="semicolon" unicode=";" horiz-adv-x="370" 
d="M253 790v0q18 0 37.5 -25.5t19.5 -61.5t-16 -47.5t-34 -11.5q-17 0 -33 11.5t-16 47.5t12.5 61.5t29.5 25.5zM162 249v0q19 11 38 1.5t23 -31.5q15 -73 -35 -121t-118 -58q-5 -1 -7.5 2t-2 7.5t4.5 6.5q48 23 77 65q15 18 14 35t-7 33q-7 16 -6.5 31t19.5 29z" />
    <glyph glyph-name="less" unicode="&#x3c;" horiz-adv-x="754" 
d="M689 738v0q5 -16 -2.5 -30.5t-23.5 -19.5q-133 -43 -262 -104.5t-217.5 -134.5t-98.5 -148q0 -57 87.5 -99t196.5 -62.5t173 -12.5q16 2 29 -7.5t16 -25.5q2 -17 -7.5 -30t-26.5 -16q-32 -5 -67 -5q-97 1 -192.5 32.5t-160.5 84.5q-72 64 -73 139q0 149 201 287
q104 69 208 113.5t170 64.5q16 5 30 -2.5t20 -23.5z" />
    <glyph glyph-name="equal" unicode="=" horiz-adv-x="705" 
d="M93 465v0q-19 0 -26 14.5t-2 29.5t24 18q192 5 383 -7q78 -4 157 -7q7 0 11.5 -5.5t4.5 -13.5q-1 -7 -5.5 -12t-11.5 -6h-146q-61 0 -123 -1q-134 1 -266 -10zM629 317v0q7 0 11.5 -5.5t4.5 -13.5q-1 -7 -5.5 -12t-11.5 -5q-73 -1 -146 -1h-123q-134 0 -266 -11
q-19 0 -26 14.5t-2 29.5t24 18q192 5 383 -7q78 -4 157 -7z" />
    <glyph glyph-name="greater" unicode="&#x3e;" horiz-adv-x="754" 
d="M65 40v0q-5 16 2.5 30.5t23.5 19.5q133 43 262.5 105t217.5 134.5t98 147.5q0 57 -87.5 99t-196.5 62.5t-172 12.5q-17 -2 -30 7.5t-16 25.5q-2 17 7.5 30t26.5 16q32 5 67 5q97 -1 193 -32t160 -85q73 -64 73 -139q0 -149 -201 -287q-104 -69 -208 -113.5t-169 -64.5
q-17 -5 -31 2.5t-20 23.5z" />
    <glyph glyph-name="question" unicode="?" horiz-adv-x="781" 
d="M716 1285v0q5 -72 -32 -141t-81 -126l-10 -14q-20 -29 -41 -56q-50 -66 -97 -133q-66 -94 -112.5 -199t-47.5 -221q-1 -19 -14.5 -25.5t-27 -0.5t-15.5 25q10 70 32 138l4 14q2 5 3 9q3 10 7 20q40 110 101 209t128 194q19 27 38 55q3 5 7 10q26 38 59.5 98.5t47 123.5
t-20.5 108q-44 46 -115.5 33t-143 -53.5t-114.5 -75.5q-41 -33 -72 -75.5t-42 -94.5q-10 -48 6 -94q6 -26 -9 -40.5t-35.5 -12t-31.5 26.5q-27 90 4 170.5t97.5 143t144.5 97.5q66 31 139.5 42t142.5 -17q16 -8 31 -18q21 -16 37 -38q2 -2 4 -5.5t4 -5.5q1 -2 3 -5.5t3 -5.5
q2 -3 3 -6q1 -1 1 -2q3 -6 6 -13q0 -2 1 -4q6 -17 8 -35zM223 168v0q18 0 37.5 -26t19.5 -62t-16 -47.5t-33 -11.5q-18 0 -34 11.5t-16 47.5t12.5 62t29.5 26z" />
    <glyph glyph-name="at" unicode="@" horiz-adv-x="1297" 
d="M1225 494v0q12 -79 -1 -163.5t-57 -153t-126 -100.5q-4 -1 -9 -2q-45 -12 -79 11t-52 63q-36 89 -32 185q-6 -20 -26 -27.5t-40 9.5q-4 4 -9 8q-3 -4 -7 -8q-110 -119 -238 -220q-36 -28 -81 -38q-32 -5 -53 13.5t-26 48.5q-6 56 15 115t52 105q69 100 155.5 122.5
t175.5 -31.5l3 3q1 2 3 3l59 59l3 3q21 21 47 41q11 9 28 14v0q6 2 18 0q8 -1 16 -6t12 -12l3 -4q11 -18 1 -35q-15 -25 -26 -51q-34 -81 -34 -168q-1 -29 6 -70.5t25 -75.5t49 -40q12 -1 23 2l6 2q78 30 116 111t41 164q6 122 -42.5 239.5t-142 195.5t-223.5 83
q-151 5 -280.5 -66.5t-220.5 -192.5t-125 -263q-2 -10 -4 -21l-6 -50l-1 -14q0 -10 -1 -20v-9q-3 -118 40.5 -235.5t128.5 -201.5t204 -102q115 -12 218.5 60.5t173.5 167.5q18 19 38.5 14.5t29.5 -23t-5 -41.5q-20 -26 -43 -49q-8 -9 -17 -17l-6 -6q-2 -1 -3 -3
q-11 -10 -22 -19q-137 -112 -304.5 -113.5t-306.5 107.5q-104 85 -155 207.5t-46 255.5q0 24 2 48q3 28 8 55q2 13 4 25q40 158 142 291t247 210.5t313 69.5q125 -6 218.5 -71.5t151 -168t74.5 -220.5zM563 210v0q85 77 166 162q-49 27 -104 11q-50 -19 -83.5 -61t-53.5 -92
q-20 -44 -21 -89q45 23 83 58q6 6 13 11zM859 373v0q9 -11 11 -22q2 29 7 57h-1q-13 -14 -26 -27q1 0 2 -1z" />
    <glyph glyph-name="A" unicode="A" horiz-adv-x="1343" 
d="M1370 500v0q4 -6 5 -13.5t-1 -13.5q-1 -4 -3 -7q-2 -2 -4 -5q-3 -2 -5 -4l-2 -1l-3 -3q-7 -3 -12 -5v0q-11 -5 -21 -0.5t-15 14.5q-2 6 -2 12q-2 0 -4 1q-30 5 -61 9q-63 6 -126 7q-59 2 -118 0q-23 -103 -36 -207q-7 -54 -7 -107q-2 -52 12 -100q6 -16 16.5 -25.5
t28.5 -5.5q27 3 39.5 -13.5t7.5 -37t-31 -28.5q-99 -4 -123 93q-12 70 1.5 156t31.5 161q3 11 5 22q11 46 23 91q-68 -2 -135 -9q-111 -10 -219 -34q-62 -13 -121 -34q-60 -20 -111 -52q-16 -8 -26.5 -0.5t-11.5 20.5t14 22v0q121 52 250 72q126 23 254 34q57 5 114 9
q21 80 43 160q67 232 115 469q1 6 3 14q7 39 15.5 99t5.5 112t-28 68q-4 1 -10.5 1.5t-11.5 -0.5l-6 -1q-3 -1 -7 -2l-4 -2q-96 -45 -217.5 -193t-243.5 -341t-221 -372t-150 -285q-100 -195 -175 -399q-11 -25 -32 -27t-35.5 13t-7.5 41q81 207 185 403t218 387
q169 286 373 549q4 4 7 8q56 71 130.5 147.5t155.5 109.5q2 0 4 1q5 2 11 3q64 9 85 -32t18.5 -99t-10.5 -100q-29 -158 -74 -312q-8 -33 -17 -65l-16 -58q-39 -147 -73 -295q120 7 240 5h14q44 0 88 -10v0q5 -1 12 -4q5 -3 9 -7l2 -2t1 -2z" />
    <glyph glyph-name="B" unicode="B" horiz-adv-x="1393" 
d="M1421 572v0q11 -3 17 -12t3 -21t-13 -17.5t-22 -2.5q-151 47 -322 11q-2 -53 -18 -108q-45 -169 -147.5 -310.5t-257.5 -224.5q-56 -29 -119 -44t-126 -2q-65 15 -92 75q-18 73 26 147.5t93 126.5q230 238 543 346q20 7 39 12q-1 65 -27 121t-83 92q-89 50 -190.5 41.5
t-193.5 -43.5q-97 -37 -188 -90q-23 -11 -40 0.5t-20 32.5q-115 -273 -217 -551q-5 -11 -15 -21l-1 -1q-14 -10 -28.5 -4.5t-19.5 21.5q-2 6 -2 9v0q-1 52 8 102q3 15 5 31q51 313 113 636q14 72 27 143q-23 -6 -40.5 10.5t-7.5 44.5l10 21t24.5 51.5l29 61t24.5 51.5l10 21
q11 21 30 22.5t33.5 -11t11.5 -36.5v0q-26 -122 -53 -248q-79 -360 -145 -716q94 240 198.5 476.5t231.5 461.5q3 6 8 14q34 59 87 126t117 76q25 2 46 -12t29 -38q7 -28 4 -51q-17 -109 -113.5 -271t-207.5 -301q88 34 179 47t182 -5q118 -29 178.5 -110t64.5 -188
q167 42 337 8zM554 1250v0q-76 -122 -138 -252.5t-119 -263.5q53 50 100 106q144 171 258 364q4 8 10 19q31 53 67 126.5t33 116.5q-1 2 -1 3q-1 1 -1 2l-1 0.5t-2 1.5q-28 2 -71 -43.5t-81.5 -100t-53.5 -79.5zM14 171v0v0v0v0zM1011 436v0q11 39 13 80
q-192 -54 -359.5 -170.5t-265.5 -256.5q-27 -39 -44 -89.5t10 -91.5q34 -37 85.5 -38t96.5 13q183 62 301.5 215.5t162.5 337.5z" />
    <glyph glyph-name="C" unicode="C" horiz-adv-x="1146" 
d="M1139 399v0q12 11 24.5 7.5t18 -15t-4.5 -25.5q-152 -156 -326 -287l-14 -10l-36 -26q-21 -15 -42 -28q-5 -4 -9 -7q-85 -55 -176 -100t-190 -68l-10 -2q-11 -2 -21 -3q-32 -5 -64 -5t-64 9l-16 5l-10 4q-2 1 -5 2q-5 2 -10 5l-4 2l-15 8q-118 72 -141.5 197.5t13.5 271
t101.5 279t122.5 223.5q165 269 401 477q62 53 134 94.5t155 50.5q61 5 106.5 -24t61.5 -89q18 -74 -1.5 -176t-56.5 -202t-72 -169q-16 -33 -39 -63q-11 -13 -27 -15t-30 9q-17 14 -15.5 34.5t19.5 32.5q44 34 73 84q99 156 118 338q5 53 -10 107t-70 69q-70 9 -161 -47.5
t-174 -133.5t-130 -130q-122 -134 -223 -285q-139 -200 -221 -428q-37 -103 -44 -216.5t60 -205.5q28 -34 66 -56l13 -7q2 -1 5 -2l8 -4q6 -3 13 -5.5t14 -5.5q27 -7 56 -8q22 -1 44 2l15 1q9 2 20 4q5 1 9 1q97 22 185.5 66t169.5 99l10 6q20 14 40 29q18 13 35 26l14 10
l12 10q18 14 35 29q141 117 260 256z" />
    <glyph glyph-name="D" unicode="D" horiz-adv-x="1337" 
d="M1347 443v0q19 -5 22 -20t-6.5 -27t-29.5 -8q-170 52 -350 48q-149 -297 -352 -481q-63 -56 -141.5 -91.5t-164.5 -19.5q-52 10 -74.5 48.5t-14.5 89.5q16 84 68 152q116 153 282.5 232.5t354.5 97.5q101 209 153.5 423t30.5 380q-11 73 -58 125q-40 36 -90.5 37.5
t-97.5 -22.5q-112 -63 -203.5 -176t-159.5 -222q-250 -410 -409 -865q-5 -14 -17 -21v0q-28 -15 -52.5 -3.5t-31.5 43.5q-6 54 5 107q1 9 2 17q13 76 30 149q54 243 115 488q17 68 34 137q-17 -17 -36 -13.5t-29.5 20.5t0.5 40l128 213q14 19 33 19t32 -14t8 -37v0
q-93 -283 -165 -573q-54 -205 -82 -413q76 194 183 411.5t237 407.5t274 302q78 59 168.5 72t169.5 -56q61 -67 74.5 -156t5.5 -175q-31 -305 -193 -640q177 9 347 -26zM607 -17v0q173 159 319 450q-193 -15 -363 -109q-99 -53 -187 -143.5t-111 -202.5q-6 -39 10 -67.5
t56 -36.5q78 -12 148.5 22.5t127.5 86.5z" />
    <glyph glyph-name="E" unicode="E" horiz-adv-x="1167" 
d="M1160 401v0q13 13 27 9t20 -17.5t-5 -28.5q-53 -53 -111 -101q-143 -118 -300 -215t-330 -163q-61 -22 -133 -38.5t-142.5 -10t-124.5 52.5q-61 60 -58.5 136.5t45 155t99 147.5t103.5 116q105 106 226 194l46 30q-78 34 -144 89.5t-84 123.5v0l-2 8q-2 11 -2 23
q0 111 62 210t138 173q66 68 158 127t188 63q86 -7 112.5 -66.5t19.5 -137.5t-24 -139q-4 -19 -9 -37q-3 -9 -5 -18q-5 -17 -19 -25t-31 -4q-23 6 -29.5 27.5t8.5 39.5q64 77 74 177q7 65 -15.5 118t-91.5 41q-89 -27 -196.5 -121t-185 -210.5t-75.5 -212.5v-5q0 -4 1 -8v-2
q1 -2 1 -3v-1q21 -58 90 -103.5t127 -65.5q22 -8 43 -12q20 -5 28 -21t2 -33t-25 -24v0v0q-59 -16 -150 -75t-186.5 -144t-167.5 -179t-91.5 -180.5t42.5 -148.5q47 -42 112.5 -46.5t133.5 11t122 35.5q136 52 260 127q220 130 401 309q25 26 48 53z" />
    <glyph glyph-name="F" unicode="F" horiz-adv-x="924" 
d="M1740 1525v0q10 -37 4 -74q-2 -18 -15 -29t-31 -10q-18 3 -28 16t-8 30q1 9 5 16q12 20 12 37q-11 50 -95.5 59t-203.5 -7t-234 -41.5t-187 -43.5q-29 -7 -46 -11q-39 -10 -85 -21q7 -49 -3 -113.5t-23 -120.5q-4 -17 -7 -32q-39 -164 -82 -327q-24 -92 -47 -183
q-10 -41 -20 -83h31q62 -1 123 2q8 1 16 1q41 1 80 13q1 8 8.5 12.5t15.5 2.5t13 -12q4 -10 0 -19q-5 -9 -10 -12q-8 -5 -14 -7h-1q-29 -6 -58 -6h-8q-41 0 -83 1q-22 1 -54.5 2t-63.5 3q-36 -150 -69 -300q-5 -101 -24 -200q-21 -113 -56 -221q-6 -16 -20 -23.5t-31 -2.5
q-13 5 -20.5 16.5t-6.5 25.5v0q16 133 50 262q24 92 50 184q14 131 6 263q-45 1 -90 1q-41 0 -81 -5q-3 0 -6 -1h-5q1 -5 1 -11q-3 -20 -20 -26t-32 7q-2 1 -3 2q-4 3 -10 8v0q-2 2 -4 5q-1 0 -2 1.5t-2 2.5v1q-4 6 -5 13q0 7 2 13q1 3 2.5 5t2.5 3l1 1l1 1l1 1l2 2l4 2
q4 2 8 2q2 1 4 1q23 2 45 0q7 -1 14 -1q42 -4 83 -6q21 0 43 -1l44 -2q-11 149 -55.5 290.5t-127.5 268.5q-51 77 -140 157q-102 -11 -158 14l-6 4q-31 24 -23.5 61t44.5 49q32 5 66.5 -11.5t58.5 -36.5q12 -9 24 -20q129 15 256 43q5 1 9 2q119 25 237 52q4 26 30 35
q45 17 75 -12q157 36 315 68q12 3 24 5q105 21 211.5 37t213.5 14q50 0 100 -17t68 -69zM305 559v0v0v0l-4 -2q-1 0 -1 -1v0v0v0v0v0v0h1q1 1 3 2zM900 605q1 0 0.5 0t-1.5 -1l1 1v0zM69 1371v0q21 -7 44 -8q-22 11 -44 16h-1h-1v0v-0.5t-1 -0.5q0 -1 -1 -2q0 -1 -0.5 -1.5
l-0.5 -0.5v-1v0v0v0v0h1v0v0zM561 570v0q5 -35 8 -71l20 70q-14 1 -28 1zM757 1293v0q6 50 5 100q0 15 -3 29q-14 -5 -28 -1q-140 -36 -253 -62q-18 -4 -40 -9q-81 -19 -185 -36q99 -118 171 -276t104 -292q19 -77 30 -156q18 -1 37 -1q51 173 94 349t68 355z" />
    <glyph glyph-name="G" unicode="G" horiz-adv-x="1678" 
d="M1680 380v0q12 -1 20 -9t8 -19q-1 -13 -10 -21t-22 -7q-111 14 -223 -3q-23 -4 -46 -9q-56 -202 -126 -372q-46 -113 -115 -244t-158 -245.5t-197 -176.5q-54 -29 -113.5 -32t-114.5 30q-11 7 -22 15q-4 3 -7 7q-46 48 -51.5 113.5t12.5 132t43 120.5q63 134 157 247.5
t209 205.5q195 156 435 225q23 83 41 166q13 56 23.5 146.5t5 184.5t-41 159.5t-114.5 72.5q-52 -5 -102.5 -42t-101.5 -89q43 -93 67 -192q4 -17 -4 -30.5t-25 -18.5q-18 -4 -32.5 5.5t-17.5 27.5v0q-14 94 -39 163q-15 -15 -28 -27l-8 -8q-118 -117 -229 -239
q-120 -133 -248 -259l-14 -12q-51 -50 -123 -106t-149 -80t-143 24l-14 12q-47 51 -54.5 116t9.5 132t43 123q83 179 237.5 339.5t338.5 232.5q134 46 238.5 3.5t172.5 -162.5q50 42 104.5 73.5t106.5 36.5q3 1 6 1h3q3 0 6 -1h2q99 -8 144 -81.5t52 -164.5
q10 -114 -5.5 -239t-47.5 -252l28 6q115 22 234 21zM947 893v0q6 6 14 13q17 16 38 34q-76 141 -212 143.5t-284 -96.5t-260 -260q-38 -54 -79.5 -132t-63.5 -160t-2 -147q8 -19 22 -33q2 -3 5 -6q1 0 2 -1l2 -2l6 -4q32 -17 76.5 -1t86.5 45t70 51l2 2q181 154 347 328
q112 116 230 226zM1005 -430v0q227 336 342 728q-246 -73 -436.5 -251.5t-292.5 -412.5q-17 -40 -36.5 -110t-22 -135t33.5 -90q72 -39 152.5 8.5t150.5 126.5t109 136z" />
    <glyph glyph-name="H" unicode="H" horiz-adv-x="1154" 
d="M1165 509v0q6 -8 7 -19q0 -9 -6 -14.5t-14 -5.5t-13.5 5.5t-6.5 13.5v0v0q-4 3 -11 7q-14 6 -31 11q-16 4 -33 7t-34 5q-35 5 -70 8q-35 2 -70 3q-45 2 -90 1q-57 -165 -92 -288.5t-25 -147.5q34 -34 69 -55q24 -16 34 -27q10 -14 8.5 -30.5t-16.5 -24.5
q-27 -12 -51.5 0.5t-40.5 34.5t-18 36q-4 29 -2 55q4 52 14 101q19 98 45 193q20 77 42 153q-79 -2 -158 -8q-47 -3 -94 -8l-374 -682q-9 -16 -27 -15v0q-9 1 -17 5q-7 4 -12 9q-10 11 -13 20q-7 18 -8 33q-2 29 0 55q4 53 12 103q17 101 40 200q24 104 51 208
q-54 -16 -103 -38q-15 -6 -30.5 -0.5t-22.5 20.5q-7 16 -1.5 31t20.5 22q5 2 9 3v0q73 15 144 24l32 122l62 230q22 80 43 160q27 97 51 194q13 49 23 97q5 24 9 47q1 9 2 17q-3 4 -5 9q-6 16 1 30.5t23 20.5q2 1 5 2t7 1q8 1 17 -2q5 -2 9 -4q4 -3 7 -6q3 -2 5 -5
q2 -2 3 -4q5 -9 6 -14q0 -2 1 -4v-4q1 -6 1 -11v-9q-1 -15 -4 -29q-4 -26 -10 -52q-11 -50 -24 -99q-26 -98 -54 -195l-111 -388q-13 -48 -27 -96l70 6q96 8 192 14l195 351q193 352 348 628v0v0q15 24 44 19q16 -4 24.5 -17.5t4.5 -30.5v-3q-30 -95 -61 -188l-64 -186
q-12 -34 -44 -121q-68 -185 -158 -442q42 1 84 0q71 0 142 -4q36 -3 72 -9q18 -2 37 -9q10 -3 20 -10q6 -3 11 -10zM398 1389v1v0v0v-1v0zM116 -144v0q14 10 119.5 195t259.5 462q-86 -9 -172 -25q-34 -6 -68 -13q-8 -2 -15 -4q-3 0 -6 -1q-33 -121 -63 -242
q-24 -97 -42 -195q-9 -49 -13 -97v-3q-1 -7 -1.5 -19t-1 -25.5t0 -23t2.5 -9.5zM601 545v0q82 4 165 5l2 8q1 5 3 10q24 85 50 169l6 20l116 376l28 94q14 47 27 94q26 89 48 179l-524 -959q39 2 79 4zM1133 487v0v0.5t-1 0.5l0.5 -0.5z" />
    <glyph glyph-name="I" unicode="I" horiz-adv-x="504" 
d="M499 1481v0q13 22 33.5 23t34 -14t5.5 -40q-86 -218 -160 -439q-152 -442 -271 -895q-44 -169 -65 -342q-1 -7 -1 -14q-4 -29 -2 -57q19 -14 17.5 -37t-28.5 -34q-19 -5 -35.5 4t-22.5 28q-8 39 2 77q1 7 2 13q15 72 34 142q0 1 1 3q178 655 374 1308q-37 -49 -73 -98
q-77 -99 -147 -202q-37 -53 -66 -108q-29 -52 -39 -107q-8 -46 35 -63q15 -7 21 -21.5t0 -30.5q-7 -15 -21.5 -21.5t-30.5 -0.5q-62 28 -77 76t-0.5 102.5t41.5 103.5q66 116 146 222q42 58 85 115q117 146 208 307v0z" />
    <glyph glyph-name="J" unicode="J" horiz-adv-x="944" 
d="M972 390v0q3 -12 -2.5 -21.5t-17.5 -11.5q-137 -28 -264 -87q-96 -288 -192 -494q-4 -9 -10 -20q-25 -56 -70 -139t-97.5 -146t-102.5 -59q-53 13 -75.5 59.5t-21.5 96.5q4 116 56.5 225.5t124.5 199.5q135 169 321 277q62 194 109 393q54 220 69 445q3 45 0 110t-22 121
t-64 75q-75 11 -179 -69t-209.5 -204.5t-184 -246.5t-101.5 -195q-17 -57 9.5 -93t94.5 -62q16 -6 22 -21t0 -31q-7 -17 -24 -22.5t-34 3.5q-86 53 -96.5 139.5t21.5 174.5q63 178 215.5 372t314.5 291q135 70 211.5 12.5t92.5 -199.5q16 -193 -32.5 -444.5t-130.5 -504.5
q114 57 236 93q11 3 20.5 -2t12.5 -15zM224 -539v0q47 15 104.5 111.5t106 205.5t68.5 161q56 143 104 288q-168 -97 -289 -248q-120 -150 -153 -337q-8 -47 0.5 -104.5t56.5 -76.5h1h1v0v0z" />
    <glyph glyph-name="K" unicode="K" horiz-adv-x="1149" 
d="M451 1419v0v0q0 -1 1 -1v0v0q-1 0 -1 1zM1611 1367v0q7 -24 -4 -44.5t-35 -28.5q-217 -62 -425 -154q-208 -88 -410 -190t-382 -237q-49 -185 -91 -366q-17 -78 -34 -157q168 -102 379.5 -162t363.5 -39q12 3 40.5 15t56.5 25.5t37 19.5q9 5 18.5 -0.5t17.5 -16.5t15 -20
q0 -1 1 -2q9 -15 6 -30.5t-17 -25.5q-24 -14 -48 -20q-71 -16 -143 -11.5t-143 17.5q-135 25 -293 81.5t-295 146.5q-33 -157 -50 -315q-2 -17 -14 -27t-29 -9q-18 2 -28.5 16t-7.5 32v0q35 170 76 340q-109 83 -167 189q-14 53 40 121t128.5 131t123.5 99q8 6 13 10
q1 1 2 1l1 1q12 46 23 92q51 195 92 393q2 12 5 25q15 71 18 142v5v2v2v0v0v0v-1v1v0q-1 0 -1 0.5v0.5v1v0v-1v0q-7 25 7 40t34.5 14t32.5 -24q2 -4 3 -8l1 -4v0q0 -3 0.5 -6.5t0.5 -6.5q1 -9 0 -17q-4 -41 -13 -80q-28 -120 -60 -238l-16 -58q-31 -112 -62 -227
q347 242 728 424q210 102 432 176q23 7 43.5 -3.5t28.5 -33.5zM178 225v0q43 172 88 344l24 92q-85 -70 -135 -122t-74.5 -87t-31.5 -52l-7 -17q25 -79 136 -158z" />
    <glyph glyph-name="L" unicode="L" horiz-adv-x="824" 
d="M1004 -77v0q17 -2 27 -15t8 -30q-3 -17 -16 -26.5t-30 -7.5q-10 3 -21 6q-24 8 -50 13q-101 19 -204 20q-278 2 -551 -54l-14 -4q-3 0 -5 -1q-1 0 -1 -1q-2 -4 -4 -7q-10 -14 -25.5 -17.5t-30.5 5.5q-3 2 -6 5l-48 -14q-2 0 -4 -1q-55 -14 -104 -39l-2 -2h-1l-1 -1
q-1 0 -1 -1l-2 -1q-7 -18 -23.5 -25t-34.5 -1q-26 12 -28 38t22 42l17 10q4 2 7 4h1q2 1 5.5 2.5t5.5 2.5h1l4 2q52 14 106 21q10 2 20 3q27 4 53 8q1 3 3 5q29 39 51 84q92 184 160 379q125 341 203 695q22 101 35 203q0 8 1 16q8 56 1 111q-19 -15 -39 -9t-30 24.5t2 43.5
q9 15 25 20l26 8q7 3 16 4t19 -1q5 -1 10 -3l8 -4t8 -5q7 -6 11.5 -13t7.5 -13q13 -37 10 -82.5t-11 -86.5q-1 -10 -3 -19q-28 -153 -68.5 -303t-84.5 -299l-2 -6q-67 -225 -145 -447q-50 -147 -115 -288q132 17 265 32q139 16 279 24q143 12 287 -4z" />
    <glyph glyph-name="M" unicode="M" horiz-adv-x="1245" 
d="M1212 1546v0q13 22 33 22.5t33.5 -14.5t6.5 -39q-78 -206 -143 -417q-31 -98 -74.5 -256t-79 -335t-42 -331t37.5 -242q20 -37 59 -35q17 1 29 -9.5t14 -27.5q1 -17 -9.5 -29t-27.5 -14q-45 1 -81 29q-55 51 -64 134t-4 154q13 167 45 330q59 304 147 633
q-37 -89 -73 -179q-67 -166 -139 -330q-66 -156 -147 -305q-3 -5 -7 -10q-28 -53 -73.5 -110.5t-103.5 -65.5h-4h-1q-6 0 -12 1q-3 1 -7 2q-35 13 -48.5 47t-16.5 68q-9 88 -4 174q13 246 46 494q-19 -55 -37 -110q-62 -194 -126 -375q-48 -136 -109 -267q-2 -5 -6 -11
q-19 -41 -49 -86t-70 -55q-4 -1 -8 -1h-1q-55 3 -75.5 45.5t-20.5 98t5 96.5q18 144 55 284q54 209 123 413q6 16 20 23t31 2q16 -6 23 -21.5t1 -31.5q-82 -196 -140 -401q-40 -135 -59 -274q-3 -25 -4 -75.5t6.5 -93t29.5 -45.5q21 3 45 45t46.5 98.5t38.5 101.5
q10 26 16 41q111 301 199 613q50 170 103 338v0v0q9 21 27.5 25t34 -6.5t16.5 -32.5q-6 -114 -24 -246q-6 -50 -11 -92q-5 -43 -13 -105q-15 -126 -31.5 -276.5t-19 -262t21.5 -118.5q32 6 99.5 137t142 303.5t127.5 301.5q15 37 27 65l52 124q98 252 224 492v0z" />
    <glyph glyph-name="N" unicode="N" horiz-adv-x="1224" 
d="M1194 1501v0q14 -4 22 -15.5t7 -25.5q-7 -103 -21 -204q-11 -90 -40.5 -256t-77 -362.5t-112.5 -378t-147 -302.5t-179 -137l-9 -1h-9q-96 3 -162 95t-106.5 240t-59.5 320t-22 335t5 286q-15 -31 -29 -62q-71 -165 -116 -341q-27 -104 -46.5 -210.5t-21.5 -213.5v-2
q-2 -46 12 -88q23 -5 30 -23.5t-2.5 -36t-34.5 -19.5q-22 1 -38 15t-22 33q-15 58 -7 116v8q4 37 9 74q29 181 75 359q44 178 106 352q3 8 7 17q18 51 47 108.5t70 82.5v0q22 10 40.5 -4t15.5 -38q-26 -197 -21 -397q3 -200 30 -398q1 -12 3 -28q8 -61 24.5 -155t44 -188
t70.5 -157t104 -64h4h4q91 12 166.5 154.5t135.5 357.5t102.5 444t67.5 413q-15 5 -22.5 19t-4.5 30q1 1 9.5 34t20 76t20 75.5t9.5 34.5q5 16 18.5 24t30.5 4zM86 173v0l-3 3v-1v0l2 -2l1 -1v1z" />
    <glyph glyph-name="O" unicode="O" horiz-adv-x="1230" 
d="M552 1055v0v-0.5v-0.5v0v0v1v0v0zM1263 386v0q2 -12 -5 -21t-19 -12q-183 -20 -370 -19q-84 -139 -191.5 -264.5t-231.5 -206.5q-20 -12 -41 -21q-16 -7 -33 -13q-1 0 -2 -1q-6 -1 -11 -3l-15 -3q-5 -1 -11 -1q-2 -1 -4 -1h-2q-3 -1 -5 -1h-10.5h-10.5t-11 0.5t-11 0.5
h-2q-10 2 -19 3l-15 4q-29 8 -54 24l-6 4q-3 1 -5 3q-7 5 -13 10l-2 2q-10 9 -19 18q-19 21 -33 45q-33 57 -47 120.5t-16 128.5q-6 215 56 422q-57 63 -86 144q-3 7 -5 16q-2 5 -3 8q-1 5 -2 9q0 2 -1 4l-2 13q-3 13 -4 26q0 4 -0.5 10t-0.5 10q3 174 103 311.5
t253.5 222.5t317.5 101q9 1 18 1h8q3 0 6 1h19q93 0 178 -37l23 -12q116 -67 160 -173t36.5 -230t-45.5 -246.5t-85 -222.5q-16 -33 -32 -65q-29 -55 -62 -113q168 3 332 29q12 1 21.5 -5.5t11.5 -19.5zM68 765v0q19 -56 54 -103q33 95 77 186q55 113 134 211.5t190 161.5
q15 9 30.5 4.5t23.5 -19.5q6 -12 6 -26v-11q-1 -6 -2 -13q-6 -26 -16 -52q-6 -18 -11 -36q0 -2 -1 -3q0 -2 -1 -3v-3v-3v-1v0h-1q4 -26 -12.5 -38.5t-37 -8t-28.5 29.5q-1 7 -1 14v12q1 6 2 13q2 8 4 15q-105 -91 -177.5 -224t-114.5 -277q5 -4 10 -9q1 -1 3.5 -3t4.5 -4
q3 -2 5 -4q5 -4 13.5 -10.5t13.5 -10.5l12 -8q11 -8 22 -15q5 -3 14.5 -8.5t14.5 -8.5q118 -63 246 -93t261 -34q48 77 84 147q16 32 31 63q52 107 93.5 250t30 279t-117.5 222q-17 13 -36 23l-19 10q-1 0 -1 1q-9 4 -19 7q-149 47 -308.5 -3.5t-278.5 -147.5
q-91 -72 -149 -172.5t-61 -217.5q0 -3 0.5 -8t0.5 -8q1 -10 2 -21l2 -8q1 -7 2 -13l2 -8q2 -7 4 -13zM503 1178v0v0.5v0.5v0v-1v0v0v0zM288 -156v0q63 0 130.5 50.5t132 126.5t120 156.5t96.5 143.5q5 9 11 17q-132 8 -258 38.5t-244 91.5q-5 4 -15.5 10t-16.5 9
q-11 7 -22 15q-7 5 -14 9q-5 4 -14.5 11t-15.5 11l-6 6q-23 -89 -33 -170q-7 -50 -10 -131.5t8 -168t46.5 -149.5t104.5 -76z" />
    <glyph glyph-name="P" unicode="P" horiz-adv-x="1348" 
d="M1372 1465v0q65 -31 87.5 -90.5t17.5 -128.5t-22 -128q-66 -216 -211.5 -412.5t-345 -333.5t-425.5 -175q-60 -10 -119 -11q-65 -3 -128 19q-8 3 -16 7q-41 -200 -77 -400q-6 -23 -23.5 -30t-34.5 1.5t-21 31.5q-3 136 56 307q14 68 28 137q-86 83 -112 207t-14 241
q3 40 12 80q8 40 29 76q13 20 32.5 24.5t36.5 -13.5q11 -13 10 -29t-13 -27l1 1v0l-1 -1q-18 -37 -37.5 -139.5t-10.5 -212.5t75 -168q119 555 272 1102q10 25 30.5 28.5t36 -10t10.5 -39.5q-121 -426 -219 -858q105 215 240 412t312 358q81 73 176 127.5t204 66.5
q62 6 123 -8q6 -1 13 -3q3 -1 7 -2q5 -1 11 -3q1 -1 3 -1q4 -2 7 -3zM1336 1000v0q25 50 51 127.5t28 151t-44 112.5q-26 18 -51.5 24.5t-35.5 7.5h-2q-130 19 -257 -51t-243.5 -192.5t-213.5 -260t-167 -253.5q-54 -90 -101 -202t-82 -212q141 -47 305.5 7.5t324.5 175
t289 270.5t199 295z" />
    <glyph glyph-name="Q" unicode="Q" horiz-adv-x="1329" 
d="M1079 -15v0q74 -20 102 -94q8 -26 -6.5 -41t-35.5 -13.5t-33 25.5q-3 8 -3 15q-1 10 -5 19q-1 1 -2 3q0 1 -1 2l-1 1q0 1 -1 1l-1 3l-2 2t-2 3l-5 4q-11 9 -25 16t-30 12l-16 4q-3 1 -6 1q-6 1 -11 2q-3 1 -6 1q-5 1 -11 2q-121 9 -241 -14q-108 -98 -216 -119
q-70 -8 -131 23q-169 -59 -325 -147q-15 -8 -30.5 -4t-24.5 18q-10 18 -2.5 36t26.5 24h1q148 39 295 83q16 4 31 9q-23 18 -42 42q-64 92 -76.5 207.5t-1.5 223.5q10 98 34 199q-63 117 -82 249q-17 137 34.5 257t149 213t215.5 149q111 55 237 73.5t245 -23.5
q153 -63 211 -218q44 -143 15.5 -304.5t-96.5 -315.5t-144 -276q-46 -78 -122 -179t-167 -190q77 17 158 25t150 -9zM323 327v0q-9 -71 -2.5 -170.5t45.5 -176t129 -80.5q38 11 76 21q65 34 125.5 90.5t103.5 105.5q155 179 274 403t156 459q19 124 -18 234.5t-157 166.5
l-8 3q-66 25 -136.5 25t-138.5 -16q-127 -31 -250.5 -102t-208.5 -177t-98 -243q-8 -140 77 -268q41 144 110.5 276t167.5 236q63 64 143 108q18 9 35 0.5t22 -27.5v0q2 -11 2 -19q0 -3 -1 -5v-2q-5 -33 -16 -63q-9 -23 -14 -47q-1 -3 -1 -4v-1v1v0q3 -26 -13 -38.5
t-36.5 -8t-28.5 29.5q-2 11 -2 19q0 2 1 5v2q1 14 5 28q-121 -107 -200 -267.5t-116 -327.5q1 -1 2 -1q1 -3 3 -5q26 -38 63 -71.5t82 -44.5q15 -2 27 2q12 5 22.5 0t15.5 -16q4 -12 -0.5 -22.5t-16.5 -15.5q-31 -8 -59 -1q-69 22 -116 75q-18 20 -35 40q-10 -57 -15 -110z
" />
    <glyph glyph-name="R" unicode="R" horiz-adv-x="1298" 
d="M1392 -169v0q20 -10 21 -28t-12 -30t-35 -5q-152 90 -315 160q-181 76 -384.5 132.5t-406.5 68.5q-63 -183 -99 -359v0q-6 -26 -26 -32t-37.5 5.5t-15.5 38.5v1l1 1v0v0v3q0 2 1 3q32 171 74 340q-53 -16 -107 -27q-23 -3 -37 13t-9 38q7 25 28.5 33t43.5 7h9h2
q46 12 93 29q34 135 70 270q57 211 108 423q22 94 39 188q8 48 12 94q1 6 1 12q4 35 -4 67q-8 16 -3 31.5t20 23.5q19 9 36.5 0.5t22.5 -29.5q10 -53 0 -104l-2 -10q-8 -50 -19 -97q-23 -96 -48 -190l-24 -88q-55 -205 -107 -410q93 214 210 416t263 383q58 72 141.5 152
t181 128.5t196.5 25.5l10 -3l9 -4q10 -4 19 -8q70 -40 78.5 -111t-15.5 -141q-61 -166 -179 -318.5t-244 -276.5q-142 -139 -303 -257.5t-342 -202.5q-16 -7 -32 -13q289 -50 567.5 -139.5t548.5 -203.5zM818 1152v0q-301 -379 -501 -871q274 138 511 364.5t392 453.5
q26 37 64 116t50 155.5t-40 106.5q-84 21 -172.5 -33t-165.5 -135t-127 -143q-6 -7 -11 -14z" />
    <glyph glyph-name="S" unicode="S" horiz-adv-x="1230" 
d="M1231 411v0q9 0 17.5 -11t13.5 -26.5t5.5 -27.5t-8.5 -13q-219 -5 -459 -48q-9 -63 -54.5 -117.5t-97.5 -93.5q-121 -92 -305 -171.5t-334 -83.5q-87 11 -105 62t44 115q103 93 235.5 154.5t263.5 105.5q127 43 258 74q-16 27 -45.5 48.5t-57.5 37.5q-8 4 -15 9
q-62 33 -125 64q-78 37 -153 79t-140 99q-117 111 -124.5 212.5t62 192t182.5 169.5q92 66 229.5 132t281.5 101t257 7q83 -32 103.5 -100.5t-0.5 -146t-63 -137.5q-25 -39 -59 -70q-25 -19 -45 -7.5t-23 34t22 39.5q120 74 153.5 152.5t-12 131t-164.5 50.5
q-166 -10 -333 -81.5t-302 -167.5q-50 -36 -107 -90t-86.5 -117.5t0.5 -129.5q45 -89 129 -146t175 -100q21 -11 41 -21q30 -16 61 -31q61 -28 118.5 -63t102.5 -87q16 -22 24 -43q217 45 439 61zM-57 -145v0q33 -31 139.5 -8t238 85.5t240.5 150t148 184.5
q-183 -38 -354 -102.5t-312 -157.5q-16 -11 -46.5 -38.5t-50.5 -59.5t-3 -54z" />
    <glyph glyph-name="T" unicode="T" horiz-adv-x="803" 
d="M1869 1539v0q7 -6 10.5 -16.5t2.5 -20.5q-2 -12 -8 -21q-7 -11 -16 -19q-1 -2 -3 -4q-13 -12 -29.5 -12t-28.5 12q-14 15 -12 33q-32 3 -64 4q-195 -1 -388.5 -23t-386.5 -51q-103 -17 -206 -36q-68 -126 -119 -262q-42 -107 -108.5 -294t-127 -389t-81.5 -354.5
t28 -190.5q19 -15 17 -35t-18 -31.5t-40 -2.5q-13 8 -20 19q-1 2 -2 3v1l-2 3q-11 30 -9 58q1 30 4 59q22 166 55 329q87 433 225 854q35 106 78 211q-235 -45 -464 -115l-6 -2q-37 -12 -71 -28q-2 -2 -5 -3q-11 -16 -29 -17t-31.5 10.5t-11.5 34.5q0 3 1 6t2 5q2 6 7 11
q1 2 3 4q25 19 55 23l12 4q30 6 59 12q210 37 491 82q17 38 36 75q29 59 78 105q18 15 40 13t37 -19q15 -20 12 -43t-23 -37q-33 -30 -56 -70q0 -1 -1 -2q0 -1 -1 -2q105 17 189 31q106 17 212 35q295 52 594 83q29 2 62 1q28 0 53 -16v0q3 -2 5 -5z" />
    <glyph glyph-name="U" unicode="U" horiz-adv-x="1028" 
d="M1045 1443v0q15 21 35.5 19.5t32.5 -18.5t1 -41v0v-1q-1 0 -1 -1v0l-2 -4t-3 -4q-51 -94 -131 -306t-154 -460.5t-108 -451t6 -278.5h1.5h0.5l-0.5 0.5l-0.5 0.5v0q26 -7 31 -27.5t-7.5 -37t-39.5 -13.5q-41 13 -55.5 50.5t-13.5 83.5t6 83q0 7 1 13q31 206 84 406
q68 264 150 523q-95 -176 -194 -350t-209 -341q-7 -10 -15 -21q-34 -53 -84.5 -119.5t-107 -119t-109.5 -61.5q-69 -7 -105.5 35t-44.5 106q-9 74 -1 146q15 140 49.5 275.5t77.5 267.5q56 179 135 348q15 22 35.5 21t33 -17.5t2.5 -40.5q-39 -80 -70 -164
q-63 -169 -113 -343.5t-70 -353.5q-1 -4 -1 -10q-4 -36 -6 -95.5t8.5 -107t44.5 -45.5v0h1.5h1.5v0q3 0 6 1q66 31 155.5 155t178.5 278t155 274q35 65 57 104q75 134 148 269q101 188 208 373z" />
    <glyph glyph-name="V" unicode="V" horiz-adv-x="1197" 
d="M1526 1551v0q14 12 29 8.5t23 -17t0 -30.5q-20 -38 -39 -76q-19 -36 -37 -74q-8 -15 -23 -20t-31 2q-15 8 -20 24l-3 -3l-4 -4q-148 -157 -278 -328q-116 -153 -222 -312q-283 -425 -514 -880q-10 -19 -28.5 -21.5t-33 8t-15.5 33.5v0q3 109 28 342q22 208 39 439
t8.5 411t-64.5 236q-22 13 -52 2q-47 -21 -84 -86t-63 -139t-40 -123q-1 -4 -2 -7q-16 -51 -18 -103q0 -26 -18 -36.5t-37.5 -3.5t-24.5 33q-2 36 6 70v4q19 98 59 189q32 74 85.5 139.5t138.5 80.5h10h1q5 1 10 0q83 -8 119.5 -84t46 -173.5t9.5 -169.5v-18
q0 -155 -12.5 -308.5t-28.5 -306.5q-11 -99 -20 -198q174 307 378 595q237 344 503 667q103 124 219 238z" />
    <glyph glyph-name="W" unicode="W" horiz-adv-x="1373" 
d="M1525 1497v0q16 -7 22.5 -22t0.5 -31q-9 -21 -29 -25.5t-37 9.5q-52 -25 -105 -148t-96.5 -266.5t-66.5 -231.5q-5 -19 -9 -32l-34 -128q-54 -216 -125 -427q-3 -8 -7 -17q-17 -51 -47.5 -110.5t-71.5 -76.5q-52 -12 -78 19.5t-35.5 80t-11.5 86.5q-5 107 -3 214
q1 67 0 133v21q-1 44 -6 107t-23.5 112.5t-57.5 54.5q-57 -7 -127.5 -124t-140 -284.5t-124.5 -324t-81 -241.5h-1v0q-1 -4 -2 -7v-2v0q-12 -21 -31 -23t-33.5 11t-11.5 37q27 119 55 236q33 139 63 278q4 21 11 50q19 90 45.5 227.5t44.5 278.5t12 240t-53 111
q-68 9 -117.5 -53t-79.5 -157.5t-41 -188.5t-4 -146q3 -27 -12 -41t-34 -11t-30 28q-27 100 0.5 211t78.5 199q28 49 64.5 91t88.5 67q32 15 69.5 12.5t66.5 -26.5q23 -22 36.5 -51.5t18.5 -58.5q13 -70 11.5 -138t-8.5 -137q-14 -133 -38 -264q-31 -172 -70 -343
q62 141 129.5 272t132 214.5t116.5 83.5q65 -7 94 -83t37 -188t8 -227q0 -133 10 -226t52 -98q38 6 88.5 139.5t104 326t99.5 372.5q36 138 62 232q30 112 69 222q20 57 50 110q16 30 41 55q12 11 29.5 18.5t36.5 6.5q18 -1 35 -8z" />
    <glyph glyph-name="X" unicode="X" horiz-adv-x="1349" 
d="M1370 401v0q8 -8 8 -19t-8 -19q-68 -65 -142 -123q-200 -153 -347.5 -155t-256 112.5t-189.5 311.5q-71 -102 -136 -208q-57 -96 -107 -195q-65 -128 -111 -262q-6 -16 -20 -23t-31 -2q-16 6 -23 20t-2 31q58 120 123 233q41 70 83 139q99 156 208 307q-1 0 -1 1
q-2 6 -5 12q-42 105 -79 212q-44 127 -95 249q-5 12 -11 24q-15 -15 -35.5 -12.5t-31.5 27.5l-4.5 14.5t-12 36t-15.5 44.5q-10 30 -17.5 52t-7.5 23q-8 30 14.5 45.5t47.5 -1.5v0q63 -55 104 -143t69 -171q5 -15 10 -28q22 -60 47 -136q29 -92 65 -192q223 301 491 562
q162 159 349 288q15 10 30.5 7t25.5 -17q10 -15 6 -32t-20 -26v0q-165 -92 -310 -215q-315 -269 -557 -605q51 -140 121 -267t168 -177q86 -34 172 -6t165 85.5t142 113.5q46 40 89 84q8 7 18.5 7.5t18.5 -7.5z" />
    <glyph glyph-name="Y" unicode="Y" horiz-adv-x="1143" 
d="M1167 385v0q1 -12 -6.5 -20.5t-19.5 -8.5q-158 -8 -295 -94q-75 -274 -182 -527.5t-239 -403.5q-37 -40 -87 -66q-51 -26 -102 -14t-66 74q-10 72 22 158.5t82 171t94 149.5q7 12 14 22q82 122 180 230q102 114 226 205q104 332 150 610.5t-1 379.5l-3 4l-3 2q-1 1 -1 2
q-1 0 -2 1q-1 0 -1 1l-4 2q-1 0 -1 1h-1h-2q-2 1 -5 0q-31 -14 -65 -72t-65 -129.5t-52 -124.5q-9 -22 -15 -37l-40 -104q-82 -220 -184 -432l-4 -8q-23 -46 -56.5 -101t-76 -97.5t-93.5 -51.5q-4 -1 -8 -1h-3q-89 1 -137 74t-66 189.5t-18 247t7 247.5q-18 3 -28 17.5
t-3 36.5v0v0q24 64 36 131l2 10q1 9 1 16v0q2 27 20.5 36.5t37.5 1t22 -35.5v0v0v0q1 -53 -6 -167q-7 -104 -10.5 -228.5t5.5 -238.5t39.5 -189t92.5 -81h2h2v0h2h2q60 14 127.5 119t131 244t111.5 255q34 81 54 125l12 28q51 120 112 236q3 6 7 12q19 35 48 71t66 35
q5 0 9 -2l4 -2q6 -2 11 -6q2 -1 5 -3q1 -1 1 -2q3 -2 5 -4l1 -1q2 -3 5 -6v0q30 -48 32.5 -137.5t-9 -184.5t-22.5 -158q0 -5 -1 -10q-34 -201 -106 -474q84 51 180 80q48 14 99 20q11 1 19 -5.5t10 -17.5zM273 -679v0q77 14 164.5 141t174.5 325.5t161 425.5
q-221 -166 -370 -400q-52 -80 -97 -167t-69 -178q-7 -30 -6.5 -77t18.5 -68h1q1 0 2.5 -1t4.5 -1q8 -1 16 0z" />
    <glyph glyph-name="Z" unicode="Z" horiz-adv-x="1152" 
d="M40 -6v0q-33 -36 -61 -72l-4 -6q120 30 239 53q157 31 315 52.5t318 21.5q53 -1 114 -8t114.5 -31t82.5 -75q8 -19 -1.5 -32t-26 -13.5t-27.5 16.5q-6 16 -17 30q-43 44 -111 59t-129 18q-157 5 -313 -20q-175 -27 -346 -75q-57 -17 -112 -35q-75 -25 -146 -56
q-17 -7 -31 1.5t-22 23.5q-6 11 -6 23.5t2 21.5q14 42 40 74q2 2 3 4q32 41 66 78q240 253 495 490q250 232 485 477q5 6 12 14q39 42 98 110t103.5 135.5t41.5 109.5l-2 4q-2 1 -8 1q-58 -1 -113 -21q-9 -3 -19 -5q-169 -58 -333 -129q-152 -66 -309 -121q-2 -1 -5 -1
q-43 -14 -88 -24t-91 -6q-18 2 -38 10q-15 7 -21.5 21.5t-0.5 30.5q8 19 25.5 24t34.5 -5q48 -21 143 1.5t196 60.5t168 67q15 7 27 11q41 18 83 36q94 42 191 79q7 2 16 5q45 18 100.5 28t88.5 -20q27 -33 20 -74.5t-30 -82t-44 -70.5l-4 -6q-89 -121 -191 -230
q-242 -258 -499 -500q-243 -230 -473 -473zM1214 1386v0v0.5v0.5l1 -1v0v0v0h-1v0z" />
    <glyph glyph-name="bracketleft" unicode="[" horiz-adv-x="709" 
d="M659 1497v0q23 5 37 -8.5t13.5 -33t-21.5 -32.5q-15 -7 -30 -6q-23 -1 -45 1q-64 6 -127 15q-104 -410 -189 -824q-89 -409 -148 -824q118 -7 236 -2q8 0 11 -5t1.5 -11t-8.5 -9l-35 -8q-115 -26 -231 -39h-2q-5 -1 -9 -2h-2v0l-14 1q-17 2 -26.5 15.5t-4.5 30.5
q117 426 198 860q88 433 154 870q3 16 16 25t29 6v0q16 -2 33 -4q82 -14 164 -16zM652 1494v0q3 2 7 3v0q-1 0 -1.5 -0.5l-0.5 -0.5h-2q-2 -1 -3 -2z" />
    <glyph glyph-name="backslash" unicode="\" horiz-adv-x="825" 
d="M760 33v0q5 -24 -9 -38t-33.5 -12.5t-31.5 22.5v0q-269 578 -558 1147l-64 126q-4 10 1.5 17t14 7.5t14.5 -8.5q33 -62 66 -123q278 -506 542 -1020q18 5 34 -4.5t18 -33.5v-10q-2 -36 6 -70z" />
    <glyph glyph-name="bracketright" unicode="]" horiz-adv-x="714" 
d="M603 1517v0q22 4 36.5 -11t8.5 -36q-117 -426 -198 -861q-88 -432 -154 -869q-3 -17 -17 -26t-31 -5l-0.5 0.5t-1.5 0.5t-1.5 0.5t-1.5 0.5h-1q-93 34 -192 11q-27 -2 -38.5 15t-6 37t31.5 27q97 20 192 -1q102 406 187 816q89 407 147 820q-27 -2 -66.5 -3.5t-79 -3.5
t-66.5 -3l-27 -1q-5 0 -9 3.5t-4 8.5t2.5 8.5t6.5 4.5z" />
    <glyph glyph-name="asciicircum" unicode="^" horiz-adv-x="663" 
d="M575 780v0q8 -15 4 -30.5t-18 -24.5q-15 -8 -30.5 -4.5t-24.5 18.5q-92 158 -69 340q-134 -96 -246 -215q-24 -26 -46 -53l-2 -4q-17 -20 -28 -43v-2l-1 -1v1q1 -12 -6.5 -16.5t-16 -2t-10.5 13.5q-1 9 0 15v0q11 32 30 59q1 2 2 3q21 31 44 60q137 175 320 305v0
q25 12 45 -4t13 -43q-31 -93 -20 -191q10 -97 60 -181z" />
    <glyph glyph-name="underscore" unicode="_" horiz-adv-x="1192" 
d="M1015 -116v0q12 -1 19.5 -6t7.5 -13q-1 -7 -8.5 -12t-18.5 -6h-245q-104 0 -207 -1q-224 1 -448 -10q-31 0 -43 14.5t-3 29.5t40 18q323 5 644 -7q131 -4 262 -7z" />
    <glyph glyph-name="grave" unicode="`" horiz-adv-x="364" 
d="M278 775v0q6 -9 2.5 -16t-11.5 -9t-15 5q-69 84 -154 150q-14 11 -17 27t7 31q16 19 38.5 17t33.5 -24q36 -73 84 -139q15 -22 32 -42z" />
    <glyph glyph-name="a" unicode="a" horiz-adv-x="1022" 
d="M1061 391v0q6 -13 0 -25t-19 -16q-29 -7 -57 -15q-68 -18 -137 -34l-10 -2q-65 -16 -131.5 -26t-133.5 -4q-98 14 -123.5 77t-9.5 151v0.5t0 -0.5q-16 -10 -30 -23v-0.5v-0.5q4 -5 8 -11q9 -15 6.5 -32t-16.5 -29q-16 -10 -33 -7.5t-29 17.5v0.5t0 -0.5q-36 -37 -71 -76
q-59 -64 -122 -127q-6 -4 -11 -10q-30 -29 -69 -53t-79 -4v0l-6 4q-32 26 -39.5 64.5t1.5 75.5q32 133 136 223q61 53 134 63t139 -43h1v0q27 24 61 42q18 10 40 10t38 -16q14 -17 13.5 -36.5t-5.5 -37.5q0 -3 -1 -5q-2 -9 -4 -20q-12 -42 -15 -88t27 -74q52 -33 136 -17
t155 40l33 11q94 28 184 69q12 5 23 1t16 -16zM206 379v0v1l87 87v0v0q-54 27 -115 -23t-103.5 -119.5t-39.5 -102.5v0v0q32 20 60 48q52 48 104 102z" />
    <glyph glyph-name="b" unicode="b" horiz-adv-x="945" 
d="M946 411v0q23 -3 29.5 -18.5t-1 -31t-29.5 -17.5q-90 20 -182 22q-130 1 -249 -48q-18 -92 -49 -178q-62 -176 -165 -330q-22 -32 -57.5 -70t-77 -54t-81.5 18q-2 2 -3 4q-2 2 -3 4q-23 42 -10.5 104t40.5 122.5t51 98.5q53 89 123 165.5t162 126.5q6 35 7 77.5t-16 72.5
l-7 7q-1 0 -3 1t-3 2q-2 0 -3.5 1t-2.5 1q-53 10 -112.5 -49t-109.5 -136t-74 -121q-44 -77 -82 -158q-10 -19 -28 -21.5t-32.5 7.5t-15.5 32v0v0q8 203 46 403t96 394q46 156 109 305q46 114 113 218q24 37 56 71.5t75 48.5q28 7 51 -3t32 -37q10 -38 3 -74
q-13 -71 -39 -139t-56 -133q-102 -222 -237 -425q-35 -52 -75 -100q-14 -16 -32 -32q-7 -7 -16 -9q-31 -159 -42 -320q34 63 96 154t139 153.5t159 40.5l7 -3q11 -5 21 -11q42 -33 50 -83.5t2 -99.5q103 37 211 45t215 2zM158 826v0q-21 -76 -40 -152q102 135 185 283
q8 14 16 27q22 37 61 111.5t76 157t53 143.5t-7 71q-39 6 -102.5 -90.5t-129.5 -246.5t-112 -304zM400 162v0q19 56 33 113q-75 -48 -132 -116.5t-100 -145.5q-31 -57 -65 -144t-30 -150q2 -8 4 -10v0v-1v0v0h1v0v0v0v0v0q2 -2 4 -2q43 -3 102 85.5t110.5 199t72.5 171.5z
M502 1467v0v0v0v0z" />
    <glyph glyph-name="c" unicode="c" horiz-adv-x="695" 
d="M737 386q5 -16 -12 -30q-99 -65 -204 -117q-105 -51 -219 -82q-92 -27 -189 -27q-89 2 -129 51t-21 137q23 85 75 155q51 71 119 125q40 32 92 49q51 18 101 -8q44 -31 41 -78q-4 -48 -38 -83q-20 -18 -40 -11q-20 6 -27 25q-8 20 8 41h1v1q7 7 22 25q14 18 24 36
q9 19 -1 27q-24 14 -70 -16q-45 -30 -94 -83q-50 -54 -88 -112q-16 -25 -39 -69q-22 -43 -35 -87q-14 -45 -3 -73q26 -48 118 -32q93 16 208 66q116 50 213 105t133 85q17 13 33 5q17 -8 21 -25z" />
    <glyph glyph-name="d" unicode="d" horiz-adv-x="852" 
d="M886 1414v0q9 -18 4 -48.5t-14 -57.5q-3 -10 -5 -17q-50 -192 -156 -469q-67 -179 -130 -365t-100 -356t-27 -300.5t90 -198.5q11 -11 11.5 -25.5t-9.5 -26.5q-13 -14 -31.5 -11.5t-28.5 19.5q-35 64 -43 139t-6 147q5 244 71 479q84 298 181 592q17 55 35 110
q47 140 88 281q1 5 -0.5 6.5t-4 0.5t-4.5 -3q-13 -22 -26 -45q-111 -204 -213 -414q-82 -168 -170 -334q31 -30 54 -65q13 -26 1 -45.5t-34.5 -22.5t-40.5 19q-12 18 -24 33q-2 -5 -5 -9q-4 -8 -9 -16q-82 -154 -187 -295q-34 -44 -82.5 -85.5t-108.5 -31.5q-4 1 -8 3
q-54 27 -56 91t22 132t46 109q50 100 133 177q62 59 149 68q45 3 84 -15q95 173 186 349q69 132 140 263q49 92 105 180q2 2 3 4q18 29 45 55q0 1 1 2q9 8 22 14q14 6 29 1.5t23 -18.5zM-15 84v0v0h1v0v0v0h-1v0v0zM-11 85v0q40 14 91.5 78.5t99.5 141t77 127.5q7 11 12 19
q9 17 19 34q-47 14 -103 -34t-105.5 -123.5t-76 -144.5t-14.5 -98z" />
    <glyph glyph-name="e" unicode="e" horiz-adv-x="779" 
d="M817 396v0q9 -14 4.5 -29t-18.5 -22q-21 -9 -46 -21q-99 -47 -237 -103t-269.5 -83.5t-210.5 11.5q-7 4 -13 8h-1q-63 48 -61 124.5t46.5 151t110.5 117.5t133 23v0l10 -4q1 -1 3.5 -2t4.5 -2l1 -1q20 -11 28 -32.5t4 -42.5q-9 -46 -37.5 -85.5t-64.5 -67.5
q-49 -41 -113 -52q-31 -5 -64 4q-3 -25 9.5 -63.5t42.5 -57.5q62 -29 152 -10t181.5 59.5t157.5 74.5q11 6 20 11q93 46 179 103q12 8 25.5 5.5t22.5 -14.5zM127 456v0q-40 -33 -73 -92q38 -3 71.5 18t59.5 50q27 29 39 65q-26 5 -52 -9t-45 -32z" />
    <glyph glyph-name="f" unicode="f" horiz-adv-x="576" 
d="M587 409v0q14 -1 22.5 -10.5t8.5 -23.5q-2 -15 -14 -24t-27 -5q-22 4 -47 0q-81 -14 -159 -45q-105 -41 -205 -93q-74 -38 -147 -80q-3 -1 -3 -5q-22 -108 -40 -211q0 -2 2 -5q47 -68 67 -152q15 -52 20.5 -136.5t-13 -160t-75.5 -101.5h-1q-36 -8 -56 13t-28.5 53.5
t-10.5 60.5q-6 102 3 202.5t23 200.5q1 5 1 9q1 4 1 7q1 1 1 3q0 3 -2 6q-58 55 -148 57q-26 3 -32 24.5t16 36.5q101 55 202 108q3 2 3 5q52 279 129 553q4 13 9 30q22 79 58 177.5t78 140.5q7 6 18 10.5t22 3.5q26 -1 40.5 -21t15.5 -43q1 -68 -24 -144t-57 -136
q-33 -68 -91 -120q-8 -7 -17 -9q-4 -1 -5 -4q-50 -182 -94 -386q-1 -4 2.5 -6.5t7.5 -1.5q28 15 57 29q127 65 257 123q80 37 164 61q33 10 68 9zM23 -444v0q11 131 -48 263q-3 4 -7.5 3.5t-6.5 -5.5q-22 -154 -24.5 -263t22.5 -145q0 -1 3 0q31 17 44.5 64t16.5 83z
M-89 -21v0q3 -3 6.5 -1.5t4.5 5.5q6 41 13 81q1 5 -2.5 7.5t-7.5 0.5q-37 -23 -73 -47q-3 -3 -2.5 -6.5t4.5 -5.5q30 -14 57 -34z" />
    <glyph glyph-name="g" unicode="g" horiz-adv-x="1042" 
d="M1055 412v0q23 -2 30 -18.5t-1 -32t-30 -17.5h-1q-79 17 -160 3q-93 -18 -174 -68.5t-147 -119.5q-1 -1 -1 -2q-63 -252 -142.5 -499.5t-182.5 -485.5q-34 -77 -78 -150q-18 -28 -44.5 -53.5t-63.5 -15.5q-29 13 -36 42t-6 57q4 86 23 169q59 261 178 500.5t302 435.5
q0 1 1 2q14 51 37 157.5t34.5 208.5t-12.5 141v0v0h-1q0 1 -1 1h-1q-23 4 -53.5 -18t-59 -52.5t-46.5 -50.5q-1 -2 -0.5 -4t2.5 -3q38 -19 72 -43q20 -17 16.5 -37.5t-21.5 -31t-41 2.5q-40 27 -84 43q-3 1 -5 -1q-32 -39 -71 -84.5t-72 -83.5q-3 -4 -7 -8
q-50 -60 -109 -115q0 -1 -1 -1q-18 -17 -40.5 -32t-49.5 -17q-7 -1 -14 0q-55 16 -59 69t11 98q36 111 120 191q119 110 277 77q2 0 4 2q46 44 97 84q33 27 73 48q19 10 42 14t44 -8q4 -2 7 -5q35 -36 32.5 -115.5t-12.5 -138.5q-1 -9 -2 -17q-17 -98 -39 -196
q0 -3 2.5 -4.5t5.5 0.5q94 86 211 136t247 46zM3 217v0v0v0v0zM262 481v0v0v0q2 2 0.5 5t-4.5 2q-56 -6 -101.5 -38t-78.5 -80q-42 -60 -56 -132q0 -3 2.5 -4.5t4.5 0.5q35 28 66 62l3 3q53 56 103 114q30 34 61 68zM74 -981v0v0v0zM367 -347v0q69 198 126 399q1 3 -0.5 4.5
t-3.5 1.5t-4 -2q-90 -124 -157 -262t-122 -281q-58 -151 -94 -307q-20 -80 -23 -160q0 -4 3 -5t5 2q48 67 83 144q3 6 6 13q101 221 181 453z" />
    <glyph glyph-name="h" unicode="h" horiz-adv-x="953" 
d="M987 409v0q12 -8 15 -21t-5 -25q-11 -14 -25 -24l-3 -3q-77 -57 -164 -98q-95 -49 -197 -83q-35 -12 -71.5 -15.5t-70.5 10.5q-39 19 -52 58t-17 81q-4 34 -11.5 60t-29.5 33q-32 1 -70 -39t-73.5 -94t-60.5 -96q-11 -19 -18 -31l-67 -113v-0.5v-0.5v-0.5v-0.5
q-10 -15 -27 -18t-32 7v0q-41 35 -42 122.5t17 185.5t34 162q4 15 6 26q-20 -3 -41 1q-17 4 -25.5 17.5t-5.5 30.5q4 16 17.5 25t29.5 6q13 -4 25 0.5t24 12.5q12 49 45.5 157t81 239.5t104.5 251t116 192t115 62.5q2 -1 4 -1q34 -15 34 -54t-9 -72l-2 -10
q-33 -124 -82.5 -242t-108.5 -232q-76 -154 -185 -289q-27 -31 -61 -58q-23 -99 -40.5 -199.5t-16.5 -200.5q5 8 10 17q30 52 73 117.5t93.5 118.5t103.5 66q45 9 77 -14t42 -67q6 -32 5 -78q-1 -35 2 -67t17 -51q27 -25 111 2.5t209 101.5q68 38 125 89q19 17 31 35
q8 12 21 15t25 -5zM184 834v0q-26 -82 -49 -164q88 111 154 236q80 146 141 301q30 77 51 156v2q9 33 9 67q-34 -13 -64.5 -56t-49.5 -78l-2 -4q-116 -221 -190 -460zM56 60h1v0v0h-1v0z" />
    <glyph glyph-name="i" unicode="i" horiz-adv-x="773" 
d="M816 395v0q6 -12 1.5 -24t-16.5 -18q-256 -102 -522 -175q-15 -4 -32 -8q-54 -14 -109.5 -20.5t-97 15t-54.5 90.5q-9 96 26 185q3 8 7 19q10 30 27 53.5t49 11.5q16 -8 20.5 -24.5t-4.5 -31.5q-30 -55 -44 -141.5t17 -144.5q28 -24 97.5 -10.5t150 43.5t141.5 56
q36 15 57 23q63 23 125 51t121 61q11 5 22.5 2t17.5 -13zM101 621v0q-25 4 -33.5 38t0 68t33.5 37q26 -3 34.5 -37t0 -68t-34.5 -38z" />
    <glyph glyph-name="j" unicode="j" horiz-adv-x="585" 
d="M633 380v0q0 -15 -9 -25t-23 -12q-109 9 -214 -20q-109 -30 -201.5 -94.5t-166.5 -149.5q-53 -237 -113.5 -472t-139.5 -465q-18 -52 -42 -103q-2 -5 -5 -10q-11 -26 -30 -50t-48 -19q-3 1 -5 2q-10 4 -16.5 12.5t-9.5 16.5q-17 56 -12 112v7q3 57 10 112
q33 223 115.5 437.5t219.5 395.5q3 16 7 32q48 224 70 451q2 17 14 27.5t29 10.5q17 -2 27.5 -14.5t9.5 -29.5q-5 -57 -14 -111q-22 -131 -49 -261q232 229 558 252q15 1 25.5 -8t12.5 -24zM-340 -993v0v0v0v0v0zM-90 -103v0q6 26 11 52q-211 -338 -264 -734v-7
q-16 -94 -2 -187q33 59 54 125q3 7 6 15q117 362 195 736zM68 648v0q-16 0 -27.5 21t-11.5 51q6 70 39 70t39 -70q0 -30 -11.5 -51t-27.5 -21z" />
    <glyph glyph-name="k" unicode="k" horiz-adv-x="840" 
d="M853 384v0q21 -1 28.5 -17.5t-0.5 -34.5q-8 -15 -22 -24t-28 -15q-64 -29 -224 -58.5t-333 -45.5t-276 -4q-11 -60 -21 -120q-20 -121 -30 -243.5t0 -244.5q0 -18 -12.5 -25.5t-26 -2.5t-16.5 24q-2 127 11.5 250.5t33.5 247.5q10 62 21 123q-8 3 -14 6q-33 21 -22 52
t31 58q3 4 5 7q15 22 31 42q70 344 176 679q46 150 112 293l4 8q22 48 59 99t92 56q31 -3 41.5 -25t0 -44t-41.5 -25l2 1l-1 -0.5t-4 -1.5q-28 -21 -49 -55q-64 -101 -109 -214q-137 -340 -220 -699v1l1 1q66 75 139 142l8 6q53 52 120 87q21 10 46.5 9t43.5 -22
q13 -21 5.5 -38.5t-25.5 -24t-37 7.5q-63 -22 -160.5 -114.5t-170.5 -186.5l-20 -98q99 -10 271.5 15t332 65.5t217.5 77.5q2 11 11 18t20 7z" />
    <glyph glyph-name="l" unicode="l" horiz-adv-x="774" 
d="M800 404v0q12 -9 13 -23t-10 -25q-74 -71 -181.5 -157t-225 -147t-222.5 -56q-84 9 -134 78q-37 61 -42.5 130.5t2.5 136.5q-18 12 -19.5 32.5t14.5 34.5q9 6 18 14q43 200 126 386t189 360q5 8 12 19q27 44 68 101.5t87 100.5t89 41q23 -2 35.5 -19.5t12.5 -38.5
q-1 -34 -10 -64q-34 -109 -86 -210q-150 -300 -342 -575q-54 -80 -120 -152q-12 -60 -15.5 -124t16.5 -122q47 -113 133.5 -115t184 58.5t177.5 134t116 112.5q38 39 70 82q8 11 20.5 13t23.5 -6zM149 641v0q-17 -49 -32 -98q206 277 364 583q25 49 47 98q22 50 37 100
q7 24 8 47q-38 -17 -75 -61.5t-62 -80.5q-91 -136 -161.5 -285t-125.5 -303z" />
    <glyph glyph-name="m" unicode="m" horiz-adv-x="1214" 
d="M1247 400v0q11 -12 9.5 -27.5t-15.5 -24.5q-26 -17 -51 -35q-63 -43 -127.5 -83t-135.5 -70q-47 -20 -100 -22t-95 33q-38 36 -57 82l-8 18q-5 12 -11 23q-1 3 -3 6q-9 20 -23 29q-1 1 -2 1q-27 -2 -63.5 -38t-65.5 -71q-13 -15 -22 -24q-6 -7 -11 -13q-24 -30 -57 -51
q-17 -9 -37 -6.5t-33 17.5q-8 10 -11 17q-5 13 -6 21q-4 39 -1 75q1 2 1 4q3 47 9 92q7 62 18 122q6 37 11 74q1 5 -2.5 7t-7.5 0v0q-16 -10 -27 -24q-2 -4 -5 -7q-13 -15 -24 -31q-2 -2 -3 -4q-39 -58 -69 -120q-10 -18 -19 -36q-11 -20 -24 -45q-33 -62 -60 -114
q-8 -16 -16 -31q-12 -25 -25 -49l-2 -4q-15 -29 -33 -57q-6 -9 -14 -18t-20 -14v0q-1 0 -3 -1q-2 0 -4 -1h-9q-2 0 -5 1t-5 2q-6 3 -10 7t-7 9v0q-25 63 -11 167.5t31 175.5q1 3 1 6q20 89 50 176q2 5 3 9q14 43 39 80q14 18 35 20t36 -16q10 -13 9 -28.5t-12 -27.5l-1 -1
q0 -1 -1 -1q-27 -58 -44 -122l-8 -24q-24 -85 -43 -172q-17 -73 -25 -148l6 10q22 37 44 76q24 44 47 89q75 148 169 286l8 12l6 8q16 24 40.5 45t57.5 22q9 0 19 -2q27 -8 38 -35q3 -10 4 -15v0q3 -41 -3 -78q-1 -8 -2 -15q-6 -40 -13 -79q-1 -6 -1 -11q-3 -18 -8 -44
t-8 -44q-2 -14 -5 -28q-3 -18 -5 -36q1 -1 2 -1.5t1.5 -1t1 -0.5h0.5v0q1 0 1 -0.5t0.5 -0.5h1t1.5 -1t2 -1q2 1 4 3q23 24 48 46q26 25 61.5 48.5t72 28t67.5 -29.5q23 -32 34 -69l8 -20q5 -12 10 -27q9 -27 21.5 -52t34.5 -34q60 -15 139 29t152 106.5t116 104.5
q11 10 25 9.5t24 -11.5z" />
    <glyph glyph-name="n" unicode="n" horiz-adv-x="961" 
d="M1000 393v0q6 -9 4 -19.5t-12 -16.5q-89 -54 -182 -100q-56 -28 -122.5 -49.5t-131 -17t-115.5 54.5q-30 32 -49 70.5t-33 77.5l-2 4q-2 7 -5 13q-8 24 -21 45q-1 1 -2.5 1.5t-3.5 -0.5q-37 -22 -68 -55l-10 -10q-69 -72 -132 -151q-39 -47 -76 -95q-11 -14 -27 -16
t-30 9q-16 13 -15 34q13 190 71 372q11 25 31.5 27.5t35.5 -12t9 -40.5v0v0q-32 -98 -49 -200q0 -2 1 -3t3 -1t3 1q57 68 121 130q4 4 8 7q28 28 67 55t78 21q23 -6 37.5 -28t21.5 -42q9 -25 18 -51q20 -69 54 -131q48 -75 123 -70t149.5 47.5t122.5 78.5q16 11 26 18
q34 23 67 47q8 6 18 5t17 -10z" />
    <glyph glyph-name="o" unicode="o" horiz-adv-x="726" 
d="M778 393v0q3 -7 3 -15q-1 -14 -10 -20t-20 -3.5t-16 14.5l-3 3q-4 5 -9 10q-24 9 -52 12q-1 0 -2 1q-48 6 -98 7q-133 4 -266 -1q-8 -1 -14 -6t-7 -13q-20 -112 -101 -191q-1 -1 -3 -2l-7 -7l-28 -22q-25 -18 -57.5 -25.5t-61.5 10.5l-4 3q-4 3 -8 7q-7 7 -12 15
q-28 49 -25.5 109.5t19.5 111.5q20 68 68 123.5t122 58.5q12 0 31 -5.5t30.5 -16t1.5 -27.5v0q-5 -6 -13.5 -8.5t-13.5 3.5q-38 43 -72.5 37t-55.5 -41q-24 -42 -38 -112t-14 -118q0 -18 3 -37t11 -33q4 -7 11 -9q14 -5 42.5 14.5t55.5 61.5t37 105q1 8 -3 15t-12 10v0
q-15 5 -28.5 15t-20.5 27q-6 16 1 32.5t23 23.5q12 6 19 6q27 2 56 -12t44 -38q4 -8 13 -10q115 -23 233 -21q23 -1 45 -1h6q47 -1 95 -4q5 0 10 -1q35 0 70 -13q7 -3 14 -9t11 -14z" />
    <glyph glyph-name="p" unicode="p" horiz-adv-x="873" 
d="M914 384v0q3 -16 -7 -27.5t-26 -11.5q-214 9 -419 -59q-1 0 -2 -2q-59 -92 -102 -139q-47 -55 -105 -99q-29 -23 -68 -40q-17 -7 -37.5 -9t-39.5 4q-17 5 -30.5 18t-11.5 32v0q14 58 67.5 101.5t105.5 70.5q62 33 127 58l2 2q45 64 76 130q7 15 14.5 38t9.5 45t-10 34
l-2 1l-2 1q-2 1 -3 2q-1 0 -2 1v0q-5 2 -11 4q-43 7 -89.5 -21.5t-87 -70.5t-66.5 -74q-86 -106 -160 -238v-2q-1 -6 -2 -11q-55 -377 -133 -750q-7 -25 -30 -30t-40 14v1q-32 64 -26 140t22 143q0 5 1 9q38 164 101 320v1q13 82 26 165q38 247 82 493q7 26 27 31.5t37 -6.5
t15 -39v0q-32 -179 -61 -358q0 -3 1.5 -4t3.5 -1t3 2q51 92 114.5 177t134 135.5t143.5 38.5q11 -3 21 -7h1l2 -2q4 -1 8 -3l5 -3q2 -1 5 -3h1q50 -40 40.5 -110t-50.5 -146q-2 -2 0 -4t5 -2q183 51 371 83l14 2q13 3 24 -4.5t13 -20.5zM-146 -456v0q25 132 48 264
q0 3 -2 4.5t-4 1t-3 -3.5q-27 -84 -41 -165q-7 -43 -7 -100q1 -3 2.5 -4t3.5 0t3 3zM205 110v0q54 42 101 96q2 2 1.5 4t-2.5 3t-4 -1q-21 -12 -40 -25q-59 -39 -99 -95q-1 -1 -0.5 -3t2.5 -3t4 0q19 10 37 24z" />
    <glyph glyph-name="q" unicode="q" horiz-adv-x="678" 
d="M532 700v0q37 -41 34.5 -116.5t-13.5 -135.5q-1 -8 -3 -16q-40 -211 -100 -425q-12 -46 -24 -91q-1 -2 -1 -5q-30 -113 -59 -231q-1 -2 0 -3q10 -46 14 -85v-9q10 -111 1 -223q-1 -5 -1 -11q-3 -54 -22 -107q-4 -7 -8 -13.5t-11 -12.5q-11 -11 -27 -12.5t-30 4.5
q-41 19 -45 65t3 88q1 4 1 7q10 68 26 133q21 94 47 196q0 3 -1 5q-8 13 -19 19t-24 0q-12 -5 -23.5 -1t-17.5 16q-5 11 -1 23t15 17q8 4 16 4q13 1 27 -2q25 -6 42 -24v2q1 2 1 3l8 32q63 242 114 481q28 127 41 256q0 4 1 8q6 56 -7 104q-2 3 -3 5q-39 -17 -94 -91
q-2 -2 -1.5 -4.5t2.5 -4.5q19 -13 18.5 -32.5t-15 -32t-38.5 -6.5q-7 3 -15 6q-4 1 -7 -3q-32 -47 -57 -87q-24 -35 -38 -57q-5 -7 -10 -13q-44 -69 -98 -133q-18 -21 -42.5 -39t-55.5 -14q-6 1 -12 3q-59 31 -61 97t20 121q27 71 79.5 126.5t126.5 78.5q57 17 117 9
q4 0 6 3q35 49 78 93q26 28 62.5 45.5t73.5 -2.5q4 -2 7 -5q0 -1 1 -1.5t2 -1.5zM124 306v0q43 60 83 121q18 26 36 53q2 3 0 6.5t-6 2.5q-87 -12 -147 -94q-46 -64 -52 -141q0 -18 3 -31h1q1 0 2 -1q2 0 3.5 -0.5l4.5 -1.5q35 32 63 74q5 6 9 12zM330 -632v0q25 109 15 222
v-3q-2 -6 -3 -12q-19 -85 -30 -171q0 -4 -1 -8q-4 -34 -4 -68q3 0 4.5 -0.5t2 -0.5h0.5h-0.5h-0.5h-1.5h-0.5h1h2.5t4.5 -1q7 21 11 42z" />
    <glyph glyph-name="r" unicode="r" horiz-adv-x="837" 
d="M872 381v0q2 -10 -4.5 -18t-17.5 -8h-28q-72 -2 -144 0h-8q-54 2 -116.5 9t-117.5 29.5t-86 69.5q-24 43 -27 90q-1 5 -1 10q-1 16 -8 28v0v0v0v0h-1h-1h-3h-4h-1q-50 -22 -108.5 -135t-107 -239t-68.5 -186v0q-10 -23 -29.5 -26.5t-35 9t-13.5 37.5l10 58.5t24.5 144
l29 171t24.5 144l10 58.5q7 26 27 31.5t37 -6.5t15 -38l-33 -195q0 -2 1.5 -3.5t3 -1t2.5 2.5q23 47 56 100.5t72.5 92t82.5 40.5q22 0 39.5 -11.5t24.5 -32.5q6 -26 5 -52q0 -19 2 -37q14 -73 82.5 -99t136.5 -30q127 -8 252 13q10 1 17.5 -4.5t8.5 -15.5z" />
    <glyph glyph-name="s" unicode="s" horiz-adv-x="835" 
d="M866 386v0q2 -11 -4 -20.5t-18 -12.5h-2q-9 -1 -18 0q-10 0 -20 -1q-50 -2 -100 -11q-133 -26 -260 -76q-102 -38 -199 -89q-3 -2 -4 -5t0 -6q17 -53 -16 -93t-81 -59q-28 -12 -59 -12h-1q-6 0 -15 4q-1 0 -1 1q-49 36 -11 80t109 82q3 3 4 6.5t-2 7.5q-28 37 -57 74
q-32 39 -63 81l-1 1q-23 30 -42 63.5t-24 72.5q-5 47 20 86t63 61q46 28 106 37.5t110 -12.5q51 -27 41 -67.5t-53.5 -83.5t-92.5 -76.5t-75 -45.5v0q25 -37 53 -75q33 -46 65 -93q2 -3 5 -4t6 1q45 21 70 33q5 2 9 3q189 82 388 138q66 19 136 33q12 2 21.5 -4.5
t12.5 -18.5zM291 628v0l-2 2q-27 21 -90.5 3t-110 -69t-23.5 -128q2 -4 8 -6t14 2q32 18 85 55t91.5 76.5t27.5 64.5zM63 28v0q13 -12 45 3.5t59.5 45t28.5 56.5q0 6 -4.5 8t-9.5 0q-23 -13 -54 -34t-52 -42.5t-13 -36.5z" />
    <glyph glyph-name="t" unicode="t" horiz-adv-x="308" 
d="M1195 1002v0l2 -8q0 -4 -1 -9q-4 -16 -17 -21t-25 1.5t-14 23.5q-27 14 -61 19h-1q-24 5 -50 7q-127 13 -257 12q-220 0 -440 -11q-40 -69 -84 -136q-33 -51 -72 -100q-3 -4 -8 -7q-42 -134 -77 -270q-6 -23 -18 -61q-24 -80 -55 -199t-47 -246.5t2.5 -232t92.5 -153.5
q13 -7 28 -5q13 0 21.5 -9t9.5 -22q0 -13 -8.5 -21.5t-21.5 -9.5q-9 0 -17 4q-41 20 -66 52q-50 75 -59.5 171t-4.5 184q14 212 56 421.5t104 413.5q-8 21 6 40q4 6 9 12q1 1 2 3q27 82 57 164q-71 -3 -152 -7q-158 -7 -295 -16q-28 -1 -55 -4q-65 -6 -131 -3h-2q-7 1 -16 4
q-3 1 -6 3l-4 2q-4 2 -6 6q-5 5 -7 12q-2 10 1 19q8 18 25 18t26 -17q76 -17 155 -17h20q161 0 342 13q59 3 112 6q28 78 89.5 219t136 268.5t139.5 163.5q18 8 38 4t30 -23q3 -7 3 -12q1 -7 1 -11v0q-4 -28 -14 -53q-1 -4 -3 -9q-10 -29 -22 -57q-108 -247 -242 -480
q33 2 67 4q237 15 464 21h29q65 2 144.5 -2.5t122.5 -26.5q9 -5 18 -17q2 -3 4 -7zM-449 1029v0l2 -1h1v0l-2 2h-1h-0.5h-0.5v0zM442 1417v0q-81 -148 -147 -304q110 193 202 396q-29 -45 -55 -92zM1142 987v0v1q0 -1 0.5 -1.5t-0.5 0.5v0z" />
    <glyph glyph-name="u" unicode="u" horiz-adv-x="944" 
d="M981 399v0q7 -9 6 -20t-10 -18l-1 -1q-21 -12 -47 -27q-72 -42 -164.5 -90.5t-183 -80.5t-157.5 -25q-9 2 -18 5q-17 7 -31 19q-7 6 -12 13q-41 64 -32 158q0 5 -4.5 6.5t-7.5 -2.5q-41 -57 -88 -110q-30 -32 -69.5 -61t-87.5 -25q-2 0 -5 1h-1q-43 11 -64 50
q-26 58 -18.5 127.5t25.5 128.5q13 42 33 82q7 14 17 28t25.5 16.5t29.5 -6.5q14 -11 16.5 -26.5t-6.5 -29.5q-31 -52 -50.5 -135t-4.5 -140q1 -4 3 -7v-1q3 -7 9 -11q1 0 3 -1v0h1v0h3q55 18 119.5 96t99.5 130q31 44 60 90q10 14 25 14t25 -11t6 -28q-3 -11 -7 -23
q-25 -75 -40 -153q-7 -39 -5.5 -84t33.5 -72q5 -3 11 -6l12 -4h1q75 -8 172 32.5t189 99.5t151 107q9 7 20 5.5t19 -10.5z" />
    <glyph glyph-name="v" unicode="v" horiz-adv-x="795" 
d="M837 382v0q2 -14 -7 -25t-24 -12q-25 0 -49 -1q-111 -3 -223 1q-1 1 -2 1q-47 2 -104.5 12.5t-97.5 41.5q-42 -100 -89 -198q-5 -8 -9 -17q-25 -51 -63.5 -109.5t-84.5 -69.5q-2 -1 -5 -1h-2.5h-2.5q-48 4 -67.5 43t-22 90t-0.5 90v10q8 115 25 228l2 8q2 16 4.5 34
t3.5 31q5 27 25 33.5t37.5 -4t17.5 -37.5q-4 -27 -12 -74q-18 -101 -29.5 -219t15.5 -165v0h1v0v0l4 2q17 13 31 32q43 58 76 124q59 116 111 237v1v4q3 46 25 86t49 76q4 6 7 11q11 11 23.5 9t19.5 -12t2 -25q-22 -48 -46 -107q-7 -17 -13 -31q-8 -21 -17 -42
q17 -21 46.5 -30.5t56.5 -13.5q87 -11 175 -5t177 20q13 2 23.5 -5.5t12.5 -21.5zM74 73v0v0q-1 0 0 0v0z" />
    <glyph glyph-name="w" unicode="w" horiz-adv-x="1024" 
d="M1069 385v0q2 -15 -7 -26t-24 -11v0q-22 0 -44 1q-94 0 -189 9.5t-181 46.5q-13 5 -24 12q-1 -28 -4 -48q-6 -68 -35 -137t-101 -90l-5 -2h-7q-69 0 -109.5 71.5t-53.5 155.5q-14 -26 -44 -84q-27 -51 -53 -100.5t-39 -69.5q-3 -5 -7 -10q-19 -32 -47.5 -63t-64.5 -33
q-3 0 -7 1q-59 12 -65.5 96.5t18 196t60 207t60.5 131.5q17 21 37.5 17.5t31 -21t-2.5 -41.5v0v0q-30 -47 -68.5 -154t-61 -215t-6.5 -158q0 -1 1 -2l1.5 -3t2.5 -2h1h1v0h1v0v0q31 6 75 80t85.5 166.5t66.5 153.5q14 33 19 44q11 20 30 23.5t35.5 -7t18.5 -33.5v-2v-1.5
v-0.5v-3.5v-2.5q-2 -56 13 -138.5t52 -121.5q6 -4 10 -5h3v0h2l2 1q49 14 72 91t26 165q-46 68 -18 163q7 17 21 17.5t25 -12.5q17 -28 23.5 -78t6.5 -103q51 -40 127 -54.5t142 -11.5q81 1 161 18q13 3 23 -3.5t14 -19.5z" />
    <glyph glyph-name="x" unicode="x" horiz-adv-x="763" 
d="M759 402v0q18 14 33.5 7t19.5 -24t-14 -32v0q-8 -5 -17 -11q-72 -47 -146.5 -91t-155.5 -76q-14 -6 -29 -11l-6 -2q-259 -88 -390 134q-10 -14 -19 -28q-81 -113 -126 -244q-5 -16 -19 -24t-31 -3q-19 6 -26 23.5t2 35.5h1q74 124 157 241l36 50q-25 61 -40 127
q-17 74 -19 152q1 17 12 28.5t29 12.5q19 -1 30.5 -15t8.5 -33q-9 -67 -1 -135q5 -45 16 -89q75 99 165 187q40 38 88 71q14 9 30 6t25 -17q11 -16 6 -33.5t-23 -25.5q-49 -23 -92 -58q-101 -83 -180 -188q56 -143 155.5 -175.5t260.5 54.5q142 76 259 186z" />
    <glyph glyph-name="y" unicode="y" horiz-adv-x="1059" 
d="M1070 412v0q18 -1 25 -14t1 -26.5t-25 -15.5q-73 2 -145 -11q-227 -47 -398 -198q-2 -3 -3 -6q-41 -163 -119.5 -410.5t-173.5 -464.5t-186 -287q-16 -12 -37.5 -14.5t-38.5 10.5q-28 27 -29 87.5t11.5 123.5t21.5 100q61 230 181.5 457.5t300.5 400.5q2 3 3 6
q12 51 25 102q35 135 58.5 245.5t18.5 164.5v2q-1 9 -4 19t-13 12q-47 -2 -96 -69t-102 -160q-41 -72 -84.5 -138t-89.5 -106.5t-95 -36.5q-51 8 -71.5 47t-17.5 87q6 70 24 134q3 11 6 21q1 5 2 11q6 23 8 45v2v0v0q-2 26 15.5 38t37.5 6t26 -31q2 -18 0 -28v-2
q-2 -21 -14 -67q-10 -38 -19 -78.5t-8.5 -70.5t18.5 -37h4q0 -1 1 -1q35 -2 76 34.5t79 88.5t65 95q13 19 22 32q5 8 10 15q37 57 78 111q26 34 64 62t83 6q6 -4 11 -9l6 -6q24 -34 20.5 -114t-20.5 -170.5t-33 -156.5q-1 -8 5 -11.5t13 0.5q108 79 233.5 125t268.5 49z
M16 -973v0q58 41 130.5 193.5t145 363.5t131.5 428q1 5 -2 9t-8 4.5t-9 -3.5q-115 -135 -199 -292.5t-138 -314.5q-49 -140 -68 -286q-4 -36 -3 -70q1 -13 3 -25q2 -6 7 -8t10 1z" />
    <glyph glyph-name="z" unicode="z" horiz-adv-x="808" 
d="M842 389v0q3 -14 -5 -24t-21 -11q-79 -4 -156 -23q-134 -33 -259 -91v0v0q64 -81 53 -173.5t-71 -170.5q-132 -171 -333 -245q-42 -14 -86 -20.5t-89 4.5q-67 19 -89 85q-9 41 6.5 80t37.5 72q86 114 213 205.5t254 155.5v0v0q-39 26 -94 43t-102 11v0v0q-14 -7 -27 1
q-15 10 -17 24t5 25q22 33 44 67v0l-73 -48q-17 -9 -30.5 -1t-16.5 23.5t12 28.5l22 16t54.5 40t64.5 47.5t54 40l22 16.5q19 12 36 5t23 -24t-6 -35v0q-38 -52 -78 -111q-17 -23 -32 -45v0q117 -9 208 -82q8 -1 15 -2q206 88 427 137q12 2 21.5 -4t12.5 -17zM347 188v0
q-3 4 -11 5.5t-16 2t-13 -1.5q-11 -6 -23 -13q-117 -63 -226.5 -147.5t-184.5 -190.5q-17 -26 -30 -59t1 -61q15 -25 46 -33q83 -12 177 35t157 101q52 43 97.5 103.5t58.5 128t-33 130.5z" />
    <glyph glyph-name="braceleft" unicode="{" horiz-adv-x="649" 
d="M631 1510v0q21 -16 18.5 -36.5t-19.5 -31.5t-41 0v0v0v0v0v0v0v0q-21 3 -44 -6q-64 -24 -102 -83q-48 -82 -54.5 -173t0.5 -185q6 -88 1 -173t-39 -164q-33 -69 -90.5 -122.5t-133.5 -67.5q43 -71 47.5 -154.5t-3.5 -168.5q-7 -74 -5 -141q2 -65 24 -127.5t83 -91.5
q15 -7 21.5 -22t-0.5 -31q-6 -15 -21 -21t-31 0q-29 13 -53 35q-64 63 -79 150q-13 62 -10 124.5t11 125.5q11 78 11 155q0 46 -11.5 91t-41.5 80q-9 12 -3 24.5t20 12.5v0q84 4 145 65.5t84 139.5q19 65 19 132t-6 135q-12 103 -6 209.5t59 200.5q48 82 138 118q46 20 97 8
q2 -1 5 -2q5 -2 10 -5zM589 1442v0v0v0v0zM589 1442v0v0v0v0v0v0v0zM589 1442v0v0v0v0v0v0z" />
    <glyph glyph-name="bar" unicode="|" horiz-adv-x="608" 
d="M515 1556v0q17 -5 25 -19t3 -31q-86 -291 -160 -586.5t-142 -591.5l-8 -36q-67 -278 -113 -559q-1 -11 -3 -22q-7 -44 -7 -83q3 -5 3 -11q0 -14 -11 -21t-24 -3q-2 1 -4 2.5t-3 2.5q-2 1 -3 2t-1 2q-4 5 -5 10l-1 2q0 4 -1 7v0q3 45 13 89q3 15 5 30q132 658 277 1312
q8 35 17 75q47 212 94 401q5 16 18.5 24t30.5 4zM88 -358h2h-2v0z" />
    <glyph glyph-name="braceright" unicode="}" horiz-adv-x="626" 
d="M558 585v0q8 -10 4 -22t-17 -14v0q-110 -28 -163.5 -128.5t-54.5 -208.5q9 -94 1 -189t-55 -180q-53 -92 -155 -126q-24 -8 -48.5 -8.5t-48.5 12.5q-21 16 -18.5 36.5t19.5 31.5t41 0q0 -1 1 -1q16 -1 33 4q72 23 113 89q44 75 52 160t3 171q4 118 64.5 226t175.5 146
q-25 49 -32 108t-8 110q0 151 16 300q0 3 1 5q9 88 -2 173q-6 53 -29.5 99t-71.5 67q-16 7 -22 21.5t0 30.5q7 16 21.5 22t30.5 0q36 -16 63 -44q49 -53 66 -122q15 -63 14 -127t-10 -126q-21 -150 -26 -299q-1 -52 5.5 -113.5t36.5 -103.5zM63 -211v0v0h-1h1zM63 -211
q0 -1 1 -1h-1v1v0z" />
    <glyph glyph-name="asciitilde" unicode="~" horiz-adv-x="716" 
d="M652 562v0q4 -4 2 -10q-17 -38 -53 -64q-36 -24 -80 -26.5t-85 5.5q-49 11 -96 25q-26 8 -52 15q-66 21 -130 9q-30 -8 -56 -30q-12 -8 -22.5 -4t-15 14.5t3.5 22.5q6 8 13 16q67 64 150.5 53.5t164.5 -42.5q28 -11 54 -19q55 -19 101.5 -14t87.5 49q2 3 6 3t7 -3z" />
    <glyph glyph-name="exclamdown" unicode="&#xa1;" horiz-adv-x="555" 
d="M114 -750v0q-18 4 -26 19t-3 32q101 306 179 618q1 3 2 7q31 121 52 243q5 32 7 63q0 5 1 10q1 17 -1 32q-10 11 -5.5 26t23.5 17q5 0 9 -1.5t8 -4.5q1 -1 3 -2q2 -2 3 -4l2 -2q3 -7 4 -11q3 -27 -3 -52q-1 -6 -2 -13q-4 -26 -9 -51q-1 -7 -2 -13q-62 -317 -135 -632
q-12 -51 -29.5 -126t-29.5 -126q-4 -16 -17.5 -24.5t-30.5 -4.5zM413 521v0q-18 0 -37.5 25.5t-19.5 61.5t16 47.5t34 11.5q17 0 33 -11.5t16 -47.5t-12.5 -61.5t-29.5 -25.5z" />
    <glyph glyph-name="cent" unicode="&#xa2;" horiz-adv-x="944" 
d="M883 577v0q14 -10 17.5 -25.5t-5.5 -29.5q-62 -90 -201.5 -171t-287.5 -97q-10 -1 -19 -1q-36 -192 -67 -384q-2 -10 -10 -16t-19 -5q-11 2 -17 11t-4 20q43 183 85 374q-126 6 -201 87q-114 132 5 348q60 104 156 191t198 123q47 223 88 438q6 21 22.5 24.5t29.5 -7
t9 -31.5q-59 -206 -111 -413q47 10 89 1q86 -19 128 -92q37 -71 9 -149q-7 -16 -21.5 -22.5t-30.5 -0.5t-22.5 21t-0.5 31q16 43 -5 82q-23 41 -74 52q-39 8 -94 -13q-73 -305 -133 -613q89 10 177.5 55t157 101t97.5 100q10 14 25.5 17t29.5 -6zM174 356v0q30 -31 85.5 -39
t108.5 -7q31 147 63 303q26 125 51 241q5 26 11 53q-34 -17 -69 -42q-32 -23 -90.5 -82t-113 -136.5t-74 -155t27.5 -135.5z" />
    <glyph glyph-name="sterling" unicode="&#xa3;" horiz-adv-x="937" 
d="M817 140v0q1 27 19 37t37.5 2.5t23.5 -34.5q-3 -68 -56.5 -89t-112.5 -18q-109 5 -215 22q-30 5 -60 9q-15 1 -37 4q-50 8 -116.5 13.5t-126.5 -1.5l-24 -22q-39 -33 -85 -55q-9 -4 -16.5 2t-5.5 16v0q7 43 39.5 66.5t78.5 32.5q80 93 120.5 217.5t60.5 250.5
q-10 -1 -20 -3q-44 -7 -87 -19q-12 -3 -22 2.5t-13 16.5q-4 14 4.5 25.5t22.5 11.5v0q53 0 106 3h16q4 28 8 54q1 4 1 7q9 54 16 108q16 138 48 274q12 49 34 97q47 98 124 112t167 -36q23 -15 21.5 -36t-18.5 -33t-41 -1q-46 28 -95 33q-56 -1 -84.5 -52t-42.5 -102
q-34 -130 -54 -266q-9 -54 -19 -107q-5 -25 -9 -50h1h3q91 3 183 -4q17 -3 22 -15.5t-1.5 -24t-23.5 -11.5q-93 29 -191 22q-23 -125 -64 -246.5t-117 -220.5q66 4 118 1q8 0 15 -1q74 -4 149 -11q89 -8 177 -12h3q18 0 47.5 0.5t55.5 5.5t36 18v7z" />
    <glyph glyph-name="currency" unicode="&#xa4;" horiz-adv-x="1002" 
d="M914 993v0q16 9 28.5 2.5t16 -20.5t-9.5 -27l-15 -13.5t-37 -33.5t-46 -42q-30 -27 -51.5 -46t-22.5 -20q-7 -6 -15 -9q18 -175 -67 -330q88 -56 181 -103q15 -7 20 -22.5t-2 -30.5q-9 -17 -26 -21.5t-33 6.5q-86 61 -165 130q-61 -89 -164 -118q-82 -19 -160 13.5
t-124 103.5q-21 -22 -47 -49q-24 -25 -41 -43.5t-19 -19.5q-20 -18 -39.5 -11t-27.5 26.5t9 40.5q3 3 7 5l138 92q-28 75 -19 156t48 155q-6 16 -16 31q-45 63 -108 109q-14 10 -17 26.5t7 31.5q15 20 38 17.5t34 -25.5q22 -46 55 -85q13 -16 27 -31q20 61 62 109t102 73
q122 48 236 -19q70 -49 93 -132v-1v0q19 13 47 33.5t56 41.5t47.5 35.5zM430 984v0q-90 -37 -132 -125q56 63 130 95q60 25 125.5 19t116.5 -50q-17 25 -43 43q-93 57 -197 18zM663 507v0q73 146 48 307v0v0q-4 21 -10 41q-6 21 -15 41q1 -27 -21 -40.5t-48 7.5
q-32 30 -76.5 33.5t-84.5 -12.5q-80 -34 -136 -111q7 -20 -3.5 -37.5t-31.5 -20.5q-31 -64 -36 -132t23 -129q32 -59 93.5 -87.5t127.5 -15.5q60 15 102 58t68 98z" />
    <glyph glyph-name="yen" unicode="&#xa5;" horiz-adv-x="757" 
d="M694 1307v0q23 -21 19.5 -50.5t-13.5 -55.5q-1 -4 -2 -7q-41 -104 -93 -202q-9 -17 -17 -35q-22 -41 -43 -82q-117 -220 -214 -447q70 0 141 -6q17 -3 21.5 -15t-2 -24t-23.5 -12q-4 0 -7 2q-42 14 -87 19q-28 3 -57 3q-10 -28 -21 -56q-6 -18 -13 -37q94 3 189 -4
q17 -3 21.5 -15.5t-2 -24t-23.5 -11.5q-95 30 -196 22q-28 -85 -39 -174q-5 -41 -2 -82q1 -7 -3.5 -12.5t-12.5 -6.5q-7 0 -12.5 4t-6.5 12q-6 89 14 176q10 40 21 79q-19 -2 -37 -5q-45 -7 -89 -19q-12 -4 -22 2t-14 17q-3 14 5 25t23 12v0q53 0 106 3q19 1 39 1
q14 47 31 92q-86 -5 -168 -28q-12 -3 -22 2.5t-14 17.5q-3 14 5 25t23 11v0q53 1 106 3q40 2 80 3h1h1q89 223 200 437q68 134 131 270q17 39 31 77v1v1q-2 -4 -4 -7l-8 -12q-26 -45 -51 -90q-37 -68 -73 -136q-62 -117 -128 -233q-52 -93 -114 -180l-6 -8q-24 -33 -57 -65
t-73 -33q-3 1 -5 1h-2h-1q-3 1 -5 2q-7 1 -13 4l-10 6l-1 1q-5 3 -9 8q-4 4 -7 8h-1l-2 4q-37 64 -30 197.5t34.5 270t51.5 210.5q11 25 32 27.5t36 -12t8 -41.5q-31 -97 -52 -197q-8 -40 -19.5 -113.5t-19.5 -151t-5.5 -132t22.5 -56.5q28 4 65 56t70.5 115.5t52.5 102.5
q2 5 4 9q65 127 139 249q34 57 67 115q26 46 54 91l10 16q20 36 52 65h1q4 4 13 7q1 0 2.5 0.5t2.5 0.5q1 1 3 1h4h2h2q9 -1 15 -6zM658 1266v0v0v0q0 1 0 0.5v-0.5v0z" />
    <glyph glyph-name="section" unicode="&#xa7;" horiz-adv-x="728" 
d="M601 1453v0q66 -39 67 -124q-4 -89 -67 -126q-15 -8 -30 -3t-24 19q-7 16 -2.5 31t19.5 23q9 5 16.5 20.5t7.5 35.5q-5 57 -72 78.5t-149.5 -16.5t-135.5 -159q-26 -74 0.5 -165t73 -173.5t80.5 -129.5l6 -8q1 -1 1 -3h1q18 -25 27 -36q53 -72 49.5 -127.5t-23.5 -85.5
q-30 -50 -83.5 -81t-108.5 -31q-11 0 -22 2q-14 2 -26 6q35 -61 74 -110.5t67 -80.5q17 -19 26 -31q64 -88 57 -157t-52 -110q-60 -53 -132 -53q-66 0 -118 42q-13 12 -14 28t9 29q11 13 27 14t29 -9q39 -29 102 -37t94 16q27 31 0.5 85t-65.5 104q-8 9 -23 26q0 1 -1 1
q-39 43 -95 118t-93.5 169t-21.5 194q15 73 63 112t101 49q13 3 25 4q-52 87 -83 195.5t-1 214.5q61 170 226 244q107 42 194 -4zM376 544v0q33 57 -19 123q-14 18 -35 47q-6 6 -23.5 8.5t-42.5 -1.5q-11 -2 -32.5 -11t-41.5 -29.5t-28 -56.5q-8 -49 3 -98q3 2 6 2
q16 4 30 -4t18 -25q2 -8 8.5 -15.5t23.5 -10.5q32 -4 71 15t62 56z" />
    <glyph glyph-name="dieresis" unicode="&#xa8;" horiz-adv-x="467" 
d="M122 943v0q17 0 36.5 -25.5t19.5 -61.5t-16 -47.5t-33 -11.5q-18 0 -33.5 11.5t-15.5 47.5t12 61.5t30 25.5zM331 943v0q17 0 36.5 -25.5t19.5 -61.5t-16 -47.5t-33 -11.5q-18 0 -34 11.5t-16 47.5t12.5 61.5t30.5 25.5z" />
    <glyph glyph-name="copyright" unicode="&#xa9;" horiz-adv-x="1006" 
d="M720 1031v0q137 -91 181.5 -249.5t1.5 -313.5q-36 -135 -122.5 -249t-210 -170.5t-271.5 -17.5q-22 7 -43 17l-4 2l-20 10q-3 2 -7 5q-8 5 -15 10q-84 64 -117 155t-25 191.5t46 194.5q-11 10 -12 26q-1 34 7 61l4 13q1 5 3 9q0 2 1 4q3 10 7 18q2 4 3 8q46 100 129 184
t189 121t220 -2l8 -4l4 -2q4 -1 7 -3q9 -3 18 -8l6 -3q3 -2 6.5 -4t5.5 -3zM842 484v0q35 133 -1.5 269t-152.5 215l-4 3q-2 0 -4 1.5t-5 2.5q-3 2 -5 3q-7 4 -14 6q-3 1 -6 3q-2 1 -4 1q-3 2 -6 3q-106 34 -201.5 -12.5t-164.5 -133.5q18 14 39 27q12 6 21 0.5t10.5 -16.5
t-9.5 -19q-96 -63 -153 -179q-1 -6 0 -11q0 -26 -23 -38q-62 -160 -36 -306q2 -9 4 -17q1 -3 1 -6l2 -4q2 -9 5 -17q31 -87 105 -141l12 -8q4 -2 7 -4q7 -4 14 -7q3 -2 5 -3q18 -8 37 -14q130 -32 239 21.5t183.5 157.5t104.5 223zM632 731v0q6 -9 10 -19q17 -39 13 -81
q-2 -21 -12 -40q-10 -16 -27 -20q-18 -3 -31.5 8.5t-14.5 28t17 31.5q7 6 10 24t3 36.5t-4 26.5q-2 4 -5 8v1v0q-3 4 -6 7q-16 12 -37 8l-8 -2q-3 0 -5 -1l-8 -2q-2 -1 -5 -2q-2 -1 -5 -2q-4 -1 -7 -3q-75 -38 -132.5 -143t-48.5 -190q1 -2 1 -4q1 -2 2 -5v0q1 -4 3 -7
q1 -1 2 -3.5t2 -3.5l1 -2l2 -2q0 -1 2 -3l3 -4q31 -28 76 -21.5t88 31t67 51.5q19 19 39 12.5t28 -25.5t-8 -40q-53 -52 -122 -78q-5 -2 -11 -4q-3 -1 -5 -2q-3 -1 -5 -1q-6 -2 -13 -4q-47 -14 -97 -7.5t-85 44.5q-3 4 -6.5 8.5t-6.5 8.5l-3 4q-3 7 -7 14l-4 10q-3 8 -4 17
q-1 1 -1 3q-13 100 49 202.5t149 151.5q35 19 77 23.5t75 -22.5q8 -7 15 -16z" />
    <glyph glyph-name="guillemotleft" unicode="&#xab;" horiz-adv-x="611" 
d="M282 778v0q8 9 17 7t14 -10t-1 -18q-42 -69 -88 -139q-38 -59 -75 -118q34 -57 45.5 -123t14.5 -131q0 -10 -7 -15t-15.5 -2.5t-11.5 12.5q-2 7 -4 13q-17 93 -62 173q-16 26 -37 46q-11 11 -11.5 24.5t8.5 24.5q53 65 108 130q54 63 105 126zM515 778v0q8 9 17 7t14 -10
t-1 -18q-42 -69 -88 -139q-38 -59 -75 -118q34 -57 45.5 -123t14.5 -131q0 -10 -7 -15t-15.5 -2.5t-11.5 12.5q-2 7 -4 13q-17 93 -62 173q-16 26 -37 46q-11 11 -11.5 24.5t8.5 24.5q53 65 108 130q54 63 105 126z" />
    <glyph glyph-name="logicalnot" unicode="&#xac;" horiz-adv-x="945" 
d="M827 462v0q28 6 43 -15t0 -46q-43 -62 -79 -125q-37 -63 -59 -131q-5 -17 -19.5 -24t-30.5 -3q-16 6 -23.5 20t-2.5 31q36 107 98 201l-54 -4q-217 -12 -433 -1q-96 4 -191 12q-10 2 -13 9.5t0.5 14.5t13.5 7q309 -6 616 28q46 6 91 16q3 0 8.5 1t8.5 2q1 1 5 2t9 2t8 2
t4 1v0z" />
    <glyph glyph-name="registered" unicode="&#xae;" horiz-adv-x="1006" 
d="M719 1031v0q138 -91 182.5 -249.5t1.5 -313.5q-36 -135 -122.5 -249t-210 -170.5t-271.5 -17.5q-22 7 -44 17l-4 2q-9 5 -19 10q-3 2 -7 5q-9 5 -15 10q-85 64 -117.5 155t-24.5 191.5t45 194.5q-10 10 -12 26q-1 34 7 61l4 13q2 5 3 9l2 4q3 10 6 18q2 4 3 8
q46 100 129 184t189 121t220 -2q4 -2 9 -4l4 -2q3 -1 7 -3q9 -3 17 -8q3 -1 6 -3t6.5 -4t5.5 -3zM842 484v0q35 133 -2 269t-152 215l-5 3q-1 0 -3.5 1.5t-4.5 2.5l-6 3q-6 4 -13 6q-3 1 -7 3q-1 1 -3 1q-3 2 -7 3q-105 34 -201 -12.5t-165 -133.5q19 14 39 27q12 6 21 0.5
t10.5 -16.5t-9.5 -19q-95 -63 -153 -179v-11q0 -26 -22 -38q-63 -160 -36 -306q1 -9 4 -17q0 -3 1 -6q1 -2 1 -4q3 -9 6 -17q31 -87 105 -141q5 -4 12 -8l6 -4q7 -4 14 -7q3 -2 6 -3q18 -8 36 -14q131 -32 239.5 21.5t183.5 157.5t105 223zM592 774v0q29 11 56 -1.5
t34 -43.5q5 -44 -22 -85.5t-57 -70.5q-76 -80 -178 -121q-13 -5 -27 -9q-4 -7 -7 -15q115 -57 239 -83q22 -7 25 -24t-8.5 -30.5t-33.5 -8.5v0q-127 41 -239 111q-12 -29 -22 -58q-7 -22 -9 -32l-2 -5q-5 -13 -15.5 -14.5t-19 5.5t-6.5 20q0 1 1 1v2t3.5 19.5t9 44.5t9.5 51
q-18 13 -36 27q-6 4 -10 8v0q-7 6 -5.5 13t8 10.5t14.5 -1.5l1 -1q1 0 2 -1q16 -10 35 -11q11 58 21.5 111.5t17.5 89l7 35.5q4 17 17.5 25.5t29.5 6.5q18 -4 27 -19t4 -32q0 -1 -6 -21t-16 -52q27 40 54 74q21 25 46.5 48.5t57.5 36.5zM622 685v0q8 17 7 33q0 1 -0.5 1.5
t-0.5 1.5q-1 1 -2 1.5t-2 1.5h-5q-35 -9 -71.5 -50.5t-57.5 -73.5q-34 -50 -64 -104q57 32 93 65q64 53 103 124z" />
    <glyph glyph-name="macron" unicode="&#xaf;" horiz-adv-x="505" 
d="M404 882v0q13 -2 17 -12t-0.5 -19.5t-17.5 -10.5v0q-37 -2 -82 -4q-105 -4 -192 -10q-17 -3 -30 6.5t-16 25.5q-3 19 9 33t31 14q46 -1 101 -7q22 -2 41 -3z" />
    <glyph glyph-name="degree" unicode="&#xb0;" horiz-adv-x="443" 
d="M349 1329v0q34 -54 23 -116t-53 -107q-64 -65 -153 -44q-1 0 -2.5 0.5t-3.5 1.5q-1 1 -2 1l-2 1q-12 5 -22 12q-6 4 -12 9l-2 2q-10 8 -18 18l-6 7q-4 6 -7 12l-2 4q-27 51 -10 107q3 8 6 17q31 69 104 93v0h1q35 22 77 22.5t74 -28.5q1 -2 3 -4q4 -4 7 -8zM187 1125v0
q50 -17 89 13t54 80t-7 93q-2 3 -3 5l-4 5q-3 4 -7 7q-13 11 -29 16q4 -2 8 -5t8 -7q5 -4 8 -9q16 -27 5.5 -49t-34 -28.5t-45.5 12.5q-21 1 -41 -9.5t-31 -29.5l-4 -8q-17 -45 20 -78q4 -3 7 -5l2 -1l1 -1v0l1 -1v0h1h1z" />
    <glyph glyph-name="plusminus" unicode="&#xb1;" horiz-adv-x="849" 
d="M299 160q-7 12 -4 28q4 13 10 26q4 10 7 20l4 10q5 15 10 29q38 116 62 237q-144 -3 -287 -6q-17 0 -28.5 11t-12.5 28q0 17 11.5 28.5t29.5 12.5q150 -3 300 -7q2 11 4 23q3 17 7 41.5t7 41.5q13 83 22 168q3 16 15.5 26.5t29.5 8.5q18 -2 28.5 -17t5.5 -33
q-30 -117 -61 -261q153 -5 305 -13q11 -1 18 -8.5t6 -18.5t-8 -17.5t-17 -6.5q-159 1 -317 -1q-13 -58 -25 -116q-25 -121 -47 -222q-2 -8 -6 -14q76 -2 151 -6q87 -4 174 -7q8 -1 13 -6t5 -13q0 -7 -5.5 -12t-12.5 -6h-163q-68 0 -137 -1q-149 1 -297 -10q-21 0 -28.5 14.5
t-1.5 29.5t26 18q104 2 207 1z" />
    <glyph glyph-name="acute" unicode="&#xb4;" horiz-adv-x="364" 
d="M257 977v0q22 -11 24.5 -34t-17.5 -38q-64 -50 -118 -110q-19 -19 -36 -40q-7 -7 -15 -5t-11.5 9t2.5 16q68 84 117 181q7 16 22.5 21.5t31.5 -0.5z" />
    <glyph glyph-name="mu" unicode="&#xb5;" horiz-adv-x="450" 
d="M465 122v0q10 -14 7 -29.5t-16 -25.5v0q-50 -38 -107 -43.5t-100 48.5q-36 56 -42 135q-20 -43 -44 -85q-23 -42 -61.5 -81.5t-90.5 -20.5q-31 17 -42 50q-9 -49 -17 -98q-36 -199 -61 -400q-1 -12 -3 -25q-6 -44 -6 -87q7 -18 -2 -35.5t-34 -20.5q-7 0 -15 2.5t-13 7.5
q-10 9 -13 21l-1 2q-4 31 1 60l2 18q35 236 86 469q42 199 97 396q9 33 21 66l4 10q8 27 26 50q2 3 7 6t11.5 3.5t12.5 -2.5q9 -6 11 -15q3 -18 -1 -35q0 -2 -1 -5q-8 -38 -19 -75q-4 -14 -7 -28q-3 -10 -6 -22q-17 -60 -30.5 -139.5t10.5 -117.5q3 -3 7 -4q1 -1 2 -1h2
q33 14 69 83t70.5 161t62.5 173l13 39q14 44 29 79v0v0v0v0q12 24 33 25.5t35 -14.5t6 -41v0q-27 -66 -59 -177t-36.5 -211.5t50.5 -134.5q13 -3 30.5 10t34.5 32t28 33q2 2 3 4q12 12 29 8t27 -18zM-118 -545v0v1v-1v0v0v0z" />
    <glyph glyph-name="paragraph" unicode="&#xb6;" horiz-adv-x="846" 
d="M945 1410v0q25 -9 29 -30t-9.5 -37t-40.5 -11q-126 34 -297 39q-85 -312 -160 -631q-2 -6 -3 -12q28 -3 56 -3q16 0 31 3q68 309 119 563v0q4 17 17 25.5t30 6.5q17 -4 26 -18.5t5 -32.5q-158 -562 -291 -1130q-3 -10 -11.5 -12t-15.5 3t-5 16q34 161 76 350
q20 93 41 188q-44 -6 -88 0q-76 -322 -165 -636q-6 -22 -15 -47.5t-16 -47.5q0 -2 -1 -3q-4 -11 -7 -23q-7 -20 -14 -41q-6 -17 -16 -31q-1 -1 -3 -2v-1q-6 -6 -15 -10q-1 -1 -3 -1q-8 -3 -18 -2.5t-18 4.5q-19 13 -20.5 30.5t10 31t30.5 13.5q17 22 27 49q15 40 27 82
q2 7 5 13q87 310 157 632q-20 4 -39 10q-70 21 -131.5 61.5t-102.5 102.5q-8 13 -15 27q-2 2 -3 4q-48 111 -19 229q2 11 5 21q1 3 2 7q51 143 180 207.5t288 73.5q0 2 1 3v2q4 17 17.5 25t30.5 5q25 -7 30 -32q169 -2 302 -33zM408 739v0q15 68 30 135q19 88 39 175
q34 159 71 319q-129 -7 -234.5 -54.5t-153.5 -150.5q-4 -9 -7 -17q-1 -3 -2 -5q-1 -4 -2 -7q-3 -8 -5 -16q-27 -100 11 -194q1 -2 3 -4q5 -12 11 -22q39 -60 102.5 -100.5t136.5 -58.5z" />
    <glyph glyph-name="periodcentered" unicode="&#xb7;" horiz-adv-x="204" 
d="M96 485v0q15 0 31.5 -22t16.5 -53q0 -30 -13.5 -40t-28.5 -10t-28.5 10t-13.5 40q0 31 10.5 53t25.5 22z" />
    <glyph glyph-name="periodcentered" unicode="&#x2219;" horiz-adv-x="204" 
d="M96 485v0q15 0 31.5 -22t16.5 -53q0 -30 -13.5 -40t-28.5 -10t-28.5 10t-13.5 40q0 31 10.5 53t25.5 22z" />
    <glyph glyph-name="cedilla" unicode="&#xb8;" horiz-adv-x="477" 
d="M225 -105v0q44 -6 73 -33.5t23 -77.5q0 -5 -1 -9q-1 -2 -1 -4q-1 -6 -3 -12q-1 -2 -1 -3q-2 -4 -3 -8l-2 -4l-4 -8q-25 -47 -76 -66t-101 3q-27 11 -45 35q-17 24 -21 51q-3 17 6 30t26 17q17 2 31 -6.5t15 -25.5q2 -23 26.5 -44.5t58 -23.5t61.5 33q24 34 15 54
t-33.5 29.5t-50 12t-34.5 2.5h-6q-20 2 -28.5 19.5t2.5 33.5v1q55 71 125 127q8 5 15 2.5t10 -9.5t-3 -15q-9 -13 -19 -26q-28 -38 -55 -75z" />
    <glyph glyph-name="guillemotright" unicode="&#xbb;" horiz-adv-x="610" 
d="M306 440v0q10 -10 10.5 -24t-8.5 -25q-52 -65 -108 -130q-54 -63 -105 -126q-8 -8 -17 -6.5t-14 9.5t1 18q43 70 88 139q38 59 75 118q-33 58 -45 123.5t-15 130.5q0 11 7.5 15.5t16 2.5t11.5 -13q1 -6 3 -13q18 -93 62 -172q16 -27 38 -47zM539 440v0q10 -10 10.5 -24
t-8.5 -25q-52 -65 -108 -130q-54 -63 -105 -126q-8 -8 -17 -6.5t-14 9.5t1 18q43 70 88 139q38 59 75 118q-33 58 -45 123.5t-15 130.5q0 11 7.5 15.5t16 2.5t11.5 -13q1 -6 3 -13q18 -93 62 -172q16 -27 38 -47z" />
    <glyph glyph-name="questiondown" unicode="&#xbf;" horiz-adv-x="781" 
d="M65 -597v0q-5 72 32 141t81 127l10 14q20 28 41 56q50 65 97 132q66 94 112.5 199.5t47.5 221.5q1 18 14.5 25t27 1t15.5 -25q-10 -71 -32 -139l-4 -14q-2 -4 -3 -8q-3 -10 -7 -20q-40 -110 -101 -209t-128 -194l-38 -56q-3 -4 -7 -10q-26 -38 -59.5 -98.5t-47 -123
t20.5 -107.5q44 -47 115.5 -33.5t143 53.5t114.5 76q41 33 72 75.5t42 93.5q10 49 -6 95q-6 26 9 40.5t35.5 12t31.5 -27.5q27 -90 -4 -170.5t-97.5 -142.5t-144.5 -98q-66 -31 -139.5 -41.5t-142.5 17.5q-16 7 -31 18q-21 16 -37 37l-4 6t-4 5l-3 6l-3 6q-2 2 -3 5
q-1 1 -1 3l-6 12q0 2 -1 4q-6 17 -8 35zM558 521v0q-18 0 -37.5 25.5t-19.5 61.5t16 47.5t33 11.5q18 0 34 -11.5t16 -47.5t-12.5 -61.5t-29.5 -25.5z" />
    <glyph glyph-name="dotlessi" unicode="&#x131;" horiz-adv-x="773" 
d="M816 395v0q6 -12 1.5 -24t-16.5 -18q-256 -102 -522 -175q-15 -4 -32 -8q-54 -14 -109.5 -20.5t-97 15t-54.5 90.5q-9 96 26 185q3 8 7 19q10 30 27 53.5t49 11.5q16 -8 20.5 -24.5t-4.5 -31.5q-30 -55 -44 -141.5t17 -144.5q28 -24 97.5 -10.5t150 43.5t141.5 56
q36 15 57 23q63 23 125 51t121 61q11 5 22.5 2t17.5 -13z" />
    <glyph glyph-name="gravecomb" unicode="&#x300;" 
d="M-65 714v0q6 -9 2.5 -16t-11.5 -9t-15 5q-69 84 -154 150q-14 11 -17 27t7 31q16 19 38.5 17t33.5 -24q36 -73 84 -139q15 -22 32 -42z" />
    <glyph glyph-name="acutecomb" unicode="&#x301;" 
d="M-56 916v0q22 -11 24 -34t-17 -38q-64 -50 -119 -110q-18 -19 -35 -40q-7 -8 -15 -6t-11.5 9.5t2.5 15.5q68 85 116 182q8 16 23.5 21.5t31.5 -0.5z" />
    <glyph glyph-name="uni0302" unicode="&#x302;" 
d="M-56 749v0q11 -10 11.5 -24t-9.5 -26q-10 -10 -23.5 -11t-24.5 8q-43 37 -66 87q-8 18 -13 37q-26 -19 -53 -39q-53 -40 -106 -82q-4 -3 -8 -1.5t-5.5 5.5t1.5 8q83 107 174 208q21 18 43 8t23 -37q-1 -40 14 -77q14 -38 42 -64z" />
    <glyph glyph-name="tildecomb" unicode="&#x303;" 
d="M-68 798v0q7 -13 -2 -24q-14 -18 -35 -34q-50 -34 -108 -14q-4 1 -8 3l-4 2q-15 6 -28 14q-24 13 -47.5 20t-51.5 -4q-3 -1 -6 -3q-2 0 -3 -1q-2 0 -3 -1q-3 -2 -5 -3h-2q-1 -1 -3 -2l-4 -2q-1 -1 -2 -1q-4 -3 -10 -5q-10 -4 -18 0.5t-10 14t5 17.5q1 2 3 4q6 7 14 13
q4 4 9 8l2 2q4 3 9 5q24 17 57 21h7q22 1 42 -6q28 -9 51 -23l12 -6q36 -24 76 -8q14 7 28 16q4 2 7 4q7 4 15 2t13 -9z" />
    <glyph glyph-name="uni0304" unicode="&#x304;" 
d="M-96 786v0q13 -3 17 -12.5t-0.5 -19t-17.5 -10.5v0q-37 -2 -82 -4q-105 -4 -192 -10q-17 -3 -30 6t-16 26q-3 19 8.5 33t31.5 14q46 -1 101 -7q22 -2 41 -3z" />
    <glyph glyph-name="uni0307" unicode="&#x307;" 
d="M-202 864v0q18 0 37.5 -25.5t19.5 -61.5t-16 -47.5t-34 -11.5q-17 0 -33 11.5t-16 47.5t12.5 61.5t29.5 25.5z" />
    <glyph glyph-name="uni0308" unicode="&#x308;" 
d="M-300 864v0q18 0 37.5 -25.5t19.5 -61.5t-16 -47.5t-34 -11.5q-17 0 -33 11.5t-16 47.5t12.5 61.5t29.5 25.5zM-91 864v0q18 0 37.5 -25.5t19.5 -61.5t-16 -47.5t-34 -11.5q-17 0 -33 11.5t-16 47.5t12 61.5t30 25.5z" />
    <glyph glyph-name="uni030A" unicode="&#x30a;" 
d="M-81 905v0q28 -43 19 -92.5t-43 -85.5q-51 -52 -122 -35l-1.5 0.5t-2.5 1.5h-2l-2 1q-9 4 -18 10q-4 3 -9 7q-1 1 -2 1q-7 7 -14 15l-4 6q-4 4 -6 9q-1 2 -2 3q-21 41 -8 86q3 6 5 13q25 56 83 75v0h1q28 17 61.5 17.5t59.5 -22.5q1 -2 2 -3q3 -4 5 -7zM-210 742v0
q40 -13 71 11t43 64t-5 74q-2 2 -3 4l-3 4q-2 3 -5 6q-11 9 -24 12q4 -2 7 -4t6 -5q4 -3 7 -7q13 -22 4 -39.5t-27.5 -23t-36.5 9.5q-17 2 -33 -7t-24 -24q-1 -3 -3 -6q-14 -36 16 -62q3 -3 5 -4l2 -1v-1h1v0h0.5t0.5 -1h1z" />
    <glyph glyph-name="uni030C" unicode="&#x30c;" 
d="M-56 919v0q4 3 8 1.5t5.5 -5.5t-1.5 -8q-84 -106 -175 -208q-20 -17 -42.5 -7t-23.5 36q1 40 -13 78q-14 37 -42 63q-11 10 -12 24t9 26q10 10 23.5 11t24.5 -8q44 -37 66 -87q8 -18 13 -37q27 20 53 39q54 41 107 82z" />
    <glyph glyph-name="uni0327" unicode="&#x327;" 
d="M-166 -107v0q43 -6 72.5 -33.5t23.5 -77.5q0 -4 -1 -9q-1 -2 -1 -3l-4 -12q0 -2 -1 -4q-1 -3 -3 -7q0 -2 -1 -4l-4 -8q-26 -48 -76.5 -66.5t-101.5 2.5q-26 12 -44 36q-17 24 -22 51q-2 17 7 30t26 16t30.5 -6t15.5 -25q2 -23 26.5 -44.5t57.5 -23.5t62 32q23 34 14.5 54
t-33.5 30t-50 12.5t-35 2.5q-2 -1 -5 0q-20 2 -28.5 19t2.5 34v0q55 71 125 128q8 5 15 2t9.5 -10t-2.5 -14q-10 -13 -19 -27q-28 -37 -55 -75z" />
    <glyph glyph-name="endash" unicode="&#x2013;" horiz-adv-x="1092" 
d="M1006 412v0q11 -1 18.5 -6t7.5 -13q-1 -7 -8.5 -12t-18.5 -6h-242q-103 0 -205 -1q-222 1 -443 -10q-31 0 -43 14.5t-3 29.5t40 18q319 5 637 -7q130 -4 260 -7z" />
    <glyph glyph-name="emdash" unicode="&#x2014;" horiz-adv-x="1878" 
d="M1826 412v0q22 0 36.5 -5.5t14.5 -13.5q-1 -7 -16 -12t-36 -6h-471q-199 0 -397 -1q-432 1 -860 -10q-61 0 -84 14.5t-5.5 29.5t77.5 18q619 5 1236 -7q252 -4 505 -7z" />
    <glyph glyph-name="quoteleft" unicode="&#x2018;" horiz-adv-x="321" 
d="M240 1011v0q1 -3 -0.5 -5.5t-4.5 -4.5q-41 -17 -62.5 -56t-16.5 -82q3 -26 17 -44q10 -14 8 -30t-16 -27q-17 -12 -36.5 -6t-26.5 27q-22 58 -3.5 115t66.5 93q30 22 66 27q3 1 6 -1.5t3 -5.5z" />
    <glyph glyph-name="quoteright" unicode="&#x2019;" horiz-adv-x="320" 
d="M219 989v0q21 -58 3 -115.5t-67 -93.5q-30 -22 -65 -27q-4 0 -6.5 2t-3.5 6q0 3 1.5 5.5t4.5 3.5q41 17 62.5 56t16.5 82q-4 26 -18 44q-10 14 -7.5 30t15.5 27q18 12 37 6t27 -26z" />
    <glyph glyph-name="quotesinglbase" unicode="&#x201a;" horiz-adv-x="370" 
d="M199 195v0q21 -58 3 -115.5t-67 -93.5q-30 -22 -65 -27q-4 0 -6.5 2t-3.5 6q0 3 1.5 5.5t4.5 3.5q41 17 62.5 56t16.5 82q-4 26 -18 44q-10 14 -7.5 30t15.5 27q18 12 37 6t27 -26z" />
    <glyph glyph-name="quotedblleft" unicode="&#x201c;" horiz-adv-x="491" 
d="M410 1011v0q1 -3 -0.5 -5.5t-4.5 -4.5q-41 -17 -62.5 -56t-16.5 -82q3 -26 17 -44q10 -14 8 -30t-16 -27q-17 -12 -36.5 -6t-26.5 27q-22 58 -3.5 115t66.5 93q30 22 66 27q3 1 6 -1.5t3 -5.5zM240 1011v0q1 -3 -0.5 -5.5t-4.5 -4.5q-41 -17 -62.5 -56t-16.5 -82
q3 -26 17 -44q10 -14 8 -30t-16 -27q-17 -12 -36.5 -6t-26.5 27q-22 58 -3.5 115t66.5 93q30 22 66 27q3 1 6 -1.5t3 -5.5z" />
    <glyph glyph-name="quotedblright" unicode="&#x201d;" horiz-adv-x="490" 
d="M389 989v0q21 -58 3 -115.5t-67 -93.5q-30 -22 -65 -27q-4 0 -6.5 2t-3.5 6q0 3 1.5 5.5t4.5 3.5q41 17 62.5 56t16.5 82q-4 26 -18 44q-10 14 -7.5 30t15.5 27q18 12 37 6t27 -26zM219 989v0q21 -58 3 -115.5t-67 -93.5q-30 -22 -65 -27q-4 0 -6.5 2t-3.5 6q0 3 1.5 5.5
t4.5 3.5q41 17 62.5 56t16.5 82q-4 26 -18 44q-10 14 -7.5 30t15.5 27q18 12 37 6t27 -26z" />
    <glyph glyph-name="quotedblbase" unicode="&#x201e;" horiz-adv-x="540" 
d="M369 195v0q21 -58 3 -115.5t-67 -93.5q-30 -22 -65 -27q-4 0 -6.5 2t-3.5 6q0 3 1.5 5.5t4.5 3.5q41 17 62.5 56t16.5 82q-4 26 -18 44q-10 14 -7.5 30t15.5 27q18 12 37 6t27 -26zM199 195v0q21 -58 3 -115.5t-67 -93.5q-30 -22 -65 -27q-4 0 -6.5 2t-3.5 6q0 3 1.5 5.5
t4.5 3.5q41 17 62.5 56t16.5 82q-4 26 -18 44q-10 14 -7.5 30t15.5 27q18 12 37 6t27 -26z" />
    <glyph glyph-name="dagger" unicode="&#x2020;" horiz-adv-x="982" 
d="M920 1046v0q2 -22 -14 -35.5t-37 -7.5h-1q-151 40 -306 44q-13 1 -28 1q-53 -222 -118.5 -493.5t-115 -477.5l-49.5 -206q-1 -5 -5.5 -7.5t-9.5 -1.5q-5 2 -7.5 6t-1.5 9l239 1170q-107 -4 -210 -27q-70 -15 -138 -39q-16 -6 -30.5 1t-20.5 23q-7 20 4 36.5t32 17.5
q46 3 93 7h4q136 11 272 12l71 350q4 17 17.5 25.5t30.5 5.5q17 -4 25.5 -17.5t5.5 -30.5l-14.5 -60t-33 -137t-32.5 -136q27 0 55 -1q141 -5 278 5q18 2 30.5 -8.5t14.5 -27.5z" />
    <glyph glyph-name="daggerdbl" unicode="&#x2021;" horiz-adv-x="1085" 
d="M1023 1046v0q2 -22 -14 -35.5t-38 -7.5v0q-151 40 -307 44q-12 1 -27 1q-26 -108 -46 -193q-18 -74 -39 -160.5t-51 -213.5h5h8q42 -1 84 -1q140 -5 278 5q17 1 29.5 -9t15.5 -28q1 -21 -15 -34.5t-37 -8.5v0q-151 41 -307 45h-24h-24h-17h-4q-33 -139 -65 -270.5
t-53 -220l-21 -88.5q-1 -5 -5.5 -7.5t-9.5 -1.5q-5 2 -7.5 6t-1.5 9l18 87.5t44.5 217.5t53.5 266q-96 -5 -190 -25q-70 -16 -137 -40q-17 -5 -31.5 2t-20.5 23q-7 19 4 35.5t32 18.5q47 2 93 6q2 0 4 1q126 9 253 11q33 163 53.5 264t42.5 206q9 44 20 97q-107 -4 -211 -27
q-69 -15 -137 -39q-16 -6 -30.5 1t-21.5 23q-6 20 5 36.5t32 17.5q46 3 93 7h4q136 11 272 12q13 64 29.5 145t29 143l12.5 62q4 17 17.5 25.5t29.5 5.5q17 -4 26 -17.5t5 -30.5l-14 -60t-32.5 -137t-33.5 -136q28 0 56 -1q141 -5 278 5q18 2 30.5 -8.5t14.5 -27.5z" />
    <glyph glyph-name="bullet" unicode="&#x2022;" horiz-adv-x="407" 
d="M60 412q0 60 42 101.5t102 41.5q59 0 101 -42t42 -101t-42.5 -101.5t-101.5 -42.5q-60 0 -101.5 42t-41.5 102z" />
    <glyph glyph-name="ellipsis" unicode="&#x2026;" horiz-adv-x="1675" 
d="M102 268v0q18 0 37.5 -26t19.5 -62t-16 -47.5t-34 -11.5q-17 0 -33 11.5t-16 47.5t12 62t30 26zM785 268v0q18 0 37.5 -26t19.5 -62t-16 -47.5t-34 -11.5q-17 0 -33 11.5t-16 47.5t12 62t30 26zM1468 268v0q18 0 37.5 -26t19.5 -62t-16 -47.5t-34 -11.5q-17 0 -33 11.5
t-16 47.5t12 62t30 26z" />
    <glyph glyph-name="guilsinglleft" unicode="&#x2039;" horiz-adv-x="378" 
d="M282 678v0q8 9 17 7t14 -10t-1 -18q-42 -69 -88 -139q-38 -59 -75 -118q34 -57 45.5 -123t14.5 -131q0 -10 -7 -15t-15.5 -2.5t-11.5 12.5q-2 7 -4 13q-17 93 -62 173q-16 26 -37 46q-11 11 -11.5 24.5t8.5 24.5q53 65 108 130q54 63 105 126z" />
    <glyph glyph-name="guilsinglright" unicode="&#x203a;" horiz-adv-x="377" 
d="M306 440v0q10 -10 10.5 -24t-8.5 -25q-52 -65 -108 -130q-54 -63 -105 -126q-8 -8 -17 -6.5t-14 9.5t1 18q43 70 88 139q38 59 75 118q-33 58 -45 123.5t-15 130.5q0 11 7.5 15.5t16 2.5t11.5 -13q1 -6 3 -13q18 -93 62 -172q16 -27 38 -47z" />
    <glyph glyph-name="fraction" unicode="&#x2044;" horiz-adv-x="825" 
d="M699 1320v0q18 10 34.5 4.5t24 -21.5t-0.5 -34v0q-289 -570 -596 -1129q-34 -62 -68 -125q-6 -9 -14.5 -8.5t-13.5 7t-1 16.5l62 126q268 526 519 1060q-7 4 -12 12q-9 14 -6 29.5t17 25.5l55 36v1z" />
    <glyph glyph-name="fraction" unicode="&#x2215;" horiz-adv-x="825" 
d="M699 1320v0q18 10 34.5 4.5t24 -21.5t-0.5 -34v0q-289 -570 -596 -1129q-34 -62 -68 -125q-6 -9 -14.5 -8.5t-13.5 7t-1 16.5l62 126q268 526 519 1060q-7 4 -12 12q-9 14 -6 29.5t17 25.5l55 36v1z" />
    <glyph glyph-name="Euro" unicode="&#x20ac;" horiz-adv-x="852" 
d="M807 1118v0q5 -40 2 -78q-2 -17 -14.5 -27.5t-29.5 -9.5q-17 2 -27.5 15t-8.5 30q10 59 -14 110q-2 4 -5 8q-1 2 -2 3l-3 5q-2 1 -3 3q-1 1 -2 1q-25 26 -62.5 32t-70.5 -9q-5 -2 -9 -4q-2 -1 -3 -2l-4 -2l-2 -2q-9 -6 -17 -13q-81 -77 -141.5 -212.5t-98.5 -281.5h3h3h7
q50 -4 99 -3q8 0 13 -5t5 -12q1 -8 -5 -13.5t-14 -4.5q-53 6 -106 7h-13q-15 -60 -25 -115q43 -2 87 -6h6q7 -1 9.5 -7t-0.5 -11t-11 -5q-48 3 -96 0q-6 -34 -10 -64q-11 -78 -15 -184t23 -178q6 -14 14 -23q33 -35 73 -24t79 44.5t69 64.5q5 6 11 11q69 72 119 158
q16 28 28 57q6 16 20.5 22.5t31.5 1.5q17 -7 23.5 -24t-2.5 -34q-56 -93 -130 -172q-41 -46 -98.5 -91t-121 -59t-123.5 34q-61 61 -66.5 189.5t18.5 264.5q-43 -7 -84 -17q-6 -2 -13 -3q-10 -3 -21 -5q-21 -3 -30 10t-4 28t26 18v0q31 0 62 2q35 2 70 3q11 61 22 111
q-50 -4 -99 -18q-12 -3 -22 2.5t-14 17.5q-3 14 5 25t23 11v0q58 1 116 -1q5 21 9 37q33 126 93 269.5t151 235.5q11 10 24 18q12 9 26 16q65 30 135 12.5t108 -79.5q5 -8 8 -16q1 -1 2 -3l4 -10q1 -3 2 -5t2.5 -7t2.5 -8l2 -10q2 -7 3 -14q0 -3 1 -5z" />
    <glyph glyph-name="trademark" unicode="&#x2122;" horiz-adv-x="649" 
d="M575 1187v0q8 -5 11 -13.5t-1 -17.5q-18 -45 -38 -102v-1q-18 -58 -32.5 -117t-15.5 -119q0 -10 2 -22t7 -21q1 0 1 -1v0v1q13 2 21 -3.5t11 -14.5q2 -10 -2 -19t-16 -13q-3 -1 -7 -1q-3 0 -6 1h-1q-15 2 -26 11q-12 11 -16 25.5t-4 27.5q0 53 11 103l2 11q0 3 1 5
q-14 -30 -30 -60q-11 -21 -29 -39q-16 -17 -36 -14q-17 3 -25 19q-10 30 -7 59v0v9v3q-13 -37 -30 -73l-1 -2q-7 -17 -21 -33h-1q-6 -7 -17 -10h-4v0h-3h-4l-1 1q-6 1 -10 4q-20 15 -19.5 43t5.5 53q1 5 1 9q15 71 38 141q3 10 12 15t19 2q10 -4 16 -14q2 -5 -5.5 -28.5
t-18.5 -54.5q-10 -29 -19 -57t-12.5 -46t3.5 -19q12 1 28 45.5t31 102t25 98.5q7 28 9 35q8 20 28 18q20 -5 21 -25q0 -13 -1 -24q-3 -28 -7 -57q-5 -45 -9 -88l-1 -4q-2 -25 -2 -50q17 29 31 62q4 8 7 17q18 41 35 81q14 36 30 73q15 36 37 77q5 10 15 13t20 -2zM476 1137
v0q-44 14 -94.5 7.5t-104.5 -22.5q-52 -105 -81 -218q-6 -25 -13 -52l-2 -10v-1q-11 -37 -9 -75q12 -14 3 -30q-9 -12 -21 -12q-6 0 -11 3h-1q-2 1 -4.5 3.5t-4.5 5.5q-1 1 -2 3l-1 1q0 1 -0.5 1.5l-0.5 0.5q-1 3 -1 5q-1 5 -1 10v6q28 182 82 345q-42 -9 -91 -27h-2
q-5 -3 -10 -5q-10 -12 -24 -9q-15 5 -20 20q-2 15 11 26v0q6 4 11 5h1q39 7 78 12q28 3 57 8q8 24 25 44q1 2 2 3q3 2 5.5 4t3.5 2v1q14 6 25 1.5t17 -14.5q7 -14 1 -28q30 5 59 10q59 11 120 20q7 1 17 0q2 0 6 -1h1q3 0 9 -4q3 -1 5 -3q7 -7 8 -16t-4 -17l-2 -3
q-2 -3 -3 -4l-1 -1q-10 -8 -23 -6q-10 3 -15 11z" />
    <glyph glyph-name="partialdiff" unicode="&#x2202;" horiz-adv-x="827" 
d="M757 661v0q10 -13 8 -29.5t-15 -27.5q-9 -6 -18 -8q-17 -137 -69.5 -261.5t-150.5 -218.5q-51 -47 -115 -80.5t-136 -32.5q-55 4 -95.5 36.5t-60.5 82.5q-45 119 -7 255t129.5 247.5t205.5 155.5q128 43 227 -21q1 167 -45 326q-20 75 -65 136q-15 21 -6.5 40t28 24.5
t39.5 -12.5q54 -69 81 -159.5t39 -175.5q15 -123 9 -254q0 -1 1 -2l2 -2q4 -5 8 -11zM399 125v0q117 81 175.5 209.5t75.5 266.5q5 41 7 83q-79 102 -209 56q-114 -47 -187.5 -147.5t-104.5 -216.5q-19 -69 -11 -150t62 -130q46 -30 97.5 -15.5t94.5 44.5z" />
    <glyph glyph-name="Delta" unicode="&#x2206;" horiz-adv-x="948" 
d="M881 54v0q7 -19 -1.5 -33.5t-25 -19t-33.5 7.5l-0.5 0.5t-1.5 1t-2 1.5t-2 1.5l-1 0.5q-103 99 -247 118t-275 -35q-25 -8 -40.5 5.5t-15 34.5t23.5 34v0q126 52 264.5 45.5t256.5 -75.5q-50 232 -82 467.5t-36 472.5q-273 -521 -589 -1018q-3 -3 -6.5 -3t-5.5 3.5t0 7.5
q167 290 317 589.5t290 603.5q11 21 29.5 23t33 -10t13.5 -35v0q-48 -272 -16 -564.5t124 -553.5z" />
    <glyph glyph-name="product" unicode="&#x220f;" horiz-adv-x="988" 
d="M924 1252v0q4 -13 -1 -24.5t-18 -17.5q-19 -8 -38 -17q-6 -2 -13 -5l-1 -1l-1 -1v-1q-22 -45 -39 -93q-82 -247 -134 -503t-90 -513q-23 -155 -37 -311q-5 -52 -7 -103q-1 -17 -13 -28t-29 -10q-18 1 -29 14.5t-9 31.5q114 619 246 1234q22 102 49 204q3 13 7 26
q3 12 7 25l-22 -8q-177 -51 -359 -36l-41 4l-12 2q-14 2 -28 3q-2 1 -4 1q-2 1 -5 1q-103 -493 -162 -992q-6 -26 -25.5 -32.5t-37.5 4.5t-17 38q73 517 191 1025q3 11 12 16.5t20 3.5l20 -8l20 -8q18 -6 36 -11q2 0 4 -1q17 -4 34 -7q174 -27 337 44q3 2 7 4q13 6 27 13
l10 5q11 6 20 12q8 17 18 34q3 5 7.5 10.5t10.5 9.5q3 3 6 5q2 1 5 2q7 4 17 5q14 2 27 -5q5 -2 9 -6q2 -1 4 -3q6 -6 10.5 -12.5t7.5 -11.5v0z" />
    <glyph glyph-name="summation" unicode="&#x2211;" horiz-adv-x="961" 
d="M856 1218v0q27 -3 36 -21.5t0 -37.5t-35 -21q-93 -1 -186 5.5t-183 29.5q15 -43 31 -85q39 -94 63 -194q5 -22 9 -44q16 -102 -9 -203q-14 -44 -34 -84q-82 -156 -189 -297q-60 -81 -124 -159q89 28 178.5 33t172.5 -36q33 -18 59 -43q6 -5 4 -11t-7.5 -8.5t-11.5 1.5v0
q-75 54 -158 53.5t-166.5 -32t-158.5 -68.5q-12 -6 -24 -11l-8 -3q-16 -4 -30 3t-19 23q-6 28 15 44q69 49 131 110q61 61 116 128q84 100 150 212q42 68 67 144l3 10q7 30 9 62q1 8 1 16v5q1 98 -34.5 190.5t-81.5 179.5q-8 16 -15 31q-20 40 -38 82q-9 27 8.5 43t44.5 7
q99 -37 204 -46t210 -8z" />
    <glyph glyph-name="minus" unicode="&#x2212;" horiz-adv-x="771" 
d="M693 412v0q8 -1 13 -6t5 -13q0 -7 -5.5 -12t-12.5 -6h-163q-68 0 -137 -1q-149 1 -297 -10q-21 0 -28.5 14.5t-1.5 29.5t26 18q214 5 427 -7q87 -4 174 -7z" />
    <glyph glyph-name="radical" unicode="&#x221a;" horiz-adv-x="811" 
d="M738 1498v0q13 -11 10 -24.5t-16 -19.5q-15 -26 -26 -55l-4 -12q-17 -44 -33 -89q-114 -349 -221 -728q-29 -98 -56 -191q-6 -22 -13 -44q-47 -163 -95 -326q-12 -28 -39.5 -27.5t-37.5 30.5v0q-14 59 -23 120q-9 51 -19 100q-10 53 -27 101q-7 22 -19 39
q-14 -6 -28.5 -1.5t-22.5 18.5t-4 29t18 24q12 8 28 11t31 -2q45 -18 66.5 -75t31.5 -108q2 -11 5 -20q6 -31 12 -63q47 149 94 301q129 424 270 829q16 46 35 91q3 7 6 15q13 35 35 67q1 1 2 3h1q2 2 3 4l2 1l2 1q1 1 2.5 2t2.5 1q4 2 9 2q3 1 6 0q6 -1 12 -4zM715 1455
l-4 2l4 -2v0z" />
    <glyph glyph-name="infinity" unicode="&#x221e;" horiz-adv-x="1021" 
d="M954 554v0q7 -50 -17 -93t-64 -72q-6 -4 -12 -9q-1 0 -2 -1q-70 -44 -151 -52q-13 -1 -27 -1q-4 0 -8 -1q-5 1 -13.5 1h-13.5q-4 1 -12 2t-13 1h-1q-6 1 -11 3q-3 0 -6 1q-13 2 -25 6q-5 1 -9 2q-68 21 -122 68q-7 6 -8 14t4 15q5 8 14 9t17 -5q47 -40 108 -57l8 -2
q11 -3 22 -5q2 -1 5 -1l10 -2q4 0 11 -0.5t12 -1.5h11h12h8q11 0 22 2q22 1 66.5 11.5t89 36.5t67.5 74q21 54 -10 103q-34 45 -101 50t-142 -20.5t-136 -72.5q2 -7 3 -14q1 -23 -12.5 -34.5t-31 -10.5t-28.5 16q-6 -4 -12 -7q-10 -7 -20 -13q-11 -6 -21 -13
q-45 -30 -92 -57q-53 -34 -117.5 -49t-114.5 37l-2 2q-2 3 -5 7l-6 10t-4 9q-1 1 -1 3q-13 33 -4.5 66t29.5 60q102 123 263 121q7 0 15 -1h4l19 -2q71 -15 114 -74q1 1 2 1q1 1 3 2q61 33 128 55.5t138 19.5q8 0 17 -1q1 0 2 -1q3 0 6 -1h4q14 -3 27 -8q2 0 3 -1l6 -2
q41 -17 71 -51q13 -15 22 -33q4 -8 7 -18l1 -1q1 -3 1 -6q1 -2 1 -4q1 -1 1 -3q1 -3 1 -7zM290 481v0q51 29 100 60q27 17 54 33q-23 29 -59 37l-14 2l-14 1q-121 3 -202 -88q-23 -28 -17 -58q0 -1 1 -2q0 -1 1 -2l2 -4q0 -1 1 -2q1 0 2 -1q1 -2 2 -3l1 -1q25 -21 64 -7.5
t70 31.5z" />
    <glyph glyph-name="integral" unicode="&#x222b;" horiz-adv-x="849" 
d="M787 1278v0q2 -20 -12 -31.5t-33 -5.5q-62 14 -101.5 -52t-60 -152t-27.5 -134q-16 -108 -30 -216q-15 -117 -33 -234q-32 -228 -95 -450q-33 -113 -93 -214q-49 -83 -137 -121q-30 -11 -62 -19q-13 -4 -24.5 2t-14.5 20q-4 17 7.5 29t29.5 8q38 -8 72 12q11 6 21 14
q65 53 105 151.5t63 210t36 205.5q4 26 8 49q8 56 16 111q19 142 43.5 283.5t65.5 280.5q17 56 42.5 117.5t67.5 107.5t108 56q14 2 25 -6t13 -22z" />
    <glyph glyph-name="approxequal" unicode="&#x2248;" horiz-adv-x="716" 
d="M102 419v0q-11 -8 -22 -4t-15.5 14.5t3.5 22.5q6 8 14 17q66 63 149.5 52.5t164.5 -42.5q29 -11 55 -19q54 -18 100.5 -13.5t87.5 48.5q3 3 6.5 3t6.5 -3q4 -4 2 -10q-17 -37 -53 -64q-36 -24 -80 -26.5t-85 6.5q-49 10 -96 24q-26 8 -52 15q-65 21 -130 9
q-29 -8 -56 -30zM639 356v0q3 3 6.5 3t6.5 -3q4 -4 2 -10q-17 -38 -53 -64q-36 -24 -80 -26.5t-85 5.5q-49 11 -96 25q-26 8 -52 15q-65 21 -130 9q-29 -8 -56 -30q-11 -9 -22 -5t-15.5 15t3.5 22q6 9 14 17q66 64 149.5 53.5t164.5 -43.5q29 -10 55 -18q54 -19 100.5 -14
t87.5 49z" />
    <glyph glyph-name="lessequal" unicode="&#x2264;" horiz-adv-x="754" 
d="M689 789v0q5 -16 -2.5 -30.5t-23.5 -19.5q-133 -43 -262 -104.5t-217.5 -134.5t-98.5 -148q0 -57 87.5 -99t196.5 -62.5t173 -12.5q16 2 29 -7.5t16 -25.5q2 -17 -7.5 -30t-26.5 -16q-32 -5 -67 -5q-97 1 -192.5 32.5t-160.5 84.5q-72 64 -73 139q0 149 201 287
q104 69 208 113.5t170 64.5q16 5 30 -2.5t20 -23.5zM693 48v0q8 -1 13 -6t5 -13q0 -7 -5.5 -12t-12.5 -6h-163q-68 0 -137 -1q-149 1 -297 -10q-21 0 -28.5 14.5t-1.5 29.5t26 18q214 5 427 -7q87 -4 174 -7z" />
    <glyph glyph-name="greaterequal" unicode="&#x2265;" horiz-adv-x="754" 
d="M65 122v0q-5 16 2.5 30.5t23.5 19.5q133 43 262.5 105t217.5 134.5t98 147.5q0 57 -87.5 99t-196.5 62.5t-172 12.5q-17 -2 -30 7.5t-16 25.5q-2 17 7.5 30t26.5 16q32 5 67 5q97 -1 193 -32t160 -85q73 -64 73 -139q0 -149 -201 -287q-104 -69 -208 -113.5t-169 -64.5
q-17 -5 -31 2.5t-20 23.5zM693 48v0q8 -1 13 -6t5 -13q0 -7 -5.5 -12t-12.5 -6h-163q-68 0 -137 -1q-149 1 -297 -10q-21 0 -28.5 14.5t-1.5 29.5t26 18q214 5 427 -7q87 -4 174 -7z" />
    <glyph glyph-name="uni030B" unicode="&#x30b;" 
d="M-53 916v0q22 -11 24 -34t-17 -38q-64 -50 -119 -110q-18 -19 -35 -40q-7 -8 -15 -6t-11.5 9.5t2.5 15.5q68 85 116 182q8 16 23.5 21.5t31.5 -0.5zM-221 916v0q22 -11 24 -34t-17 -38q-64 -50 -119 -110q-18 -19 -35 -40q-7 -8 -15 -6t-11.5 9.5t2.5 15.5q68 85 116 182
q8 16 23.5 21.5t31.5 -0.5z" />
    <glyph glyph-name="uni0306" unicode="&#x306;" 
d="M-40 896v0q11 -6 11 -18q-2 -32 -14 -62q-14 -39 -41 -71.5t-68 -48.5q-55 -18 -109 4q-51 22 -67 72t0 101q3 8 7 17q9 14 21.5 15t22 -8t7.5 -25v-4v-6q-1 -27 6.5 -53.5t32.5 -37.5q37 -15 74 3q62 41 92 112q3 7 10 10t15 0z" />
    <glyph glyph-name="uni0315" unicode="&#x315;" 
d="M-90 959v0q21 -58 3 -115.5t-67 -93.5q-30 -22 -65 -27q-4 0 -6.5 2t-3.5 6q0 3 1.5 5.5t4.5 3.5q41 17 62.5 56t16.5 82q-4 26 -18 44q-10 14 -7.5 30t15.5 27q18 12 37 6t27 -26z" />
    <glyph glyph-name="uni0326" unicode="&#x326;" 
d="M-88 -51v0q21 -58 3 -115.5t-67 -93.5q-30 -22 -65 -27q-4 0 -6.5 2t-3.5 6q0 3 1.5 5.5t4.5 3.5q41 17 62.5 56t16.5 82q-4 26 -18 44q-10 14 -7.5 30t15.5 27q18 12 37 6t27 -26z" />
    <glyph glyph-name="uni0312" unicode="&#x312;" 
d="M-67 945v0q1 -3 -0.5 -5.5t-4.5 -4.5q-41 -17 -62.5 -56t-16.5 -82q3 -26 17 -44q10 -14 8 -30t-16 -27q-17 -12 -36.5 -6t-26.5 27q-22 58 -3.5 115t66.5 93q30 22 66 27q3 1 6 -1.5t3 -5.5z" />
    <glyph glyph-name="uni0328" unicode="&#x328;" 
d="M-60 -185v0q14 -10 17.5 -25.5t-5.5 -29.5q-31 -39 -71 -61q-53 -32 -117 -31t-96 62l-2 6q-1 4 -2 7q-13 65 33.5 126.5t92.5 103.5q15 13 30 27q13 12 25 23q8 7 16 4t11 -10.5t-3 -16.5q-2 -1 -4 -4q-27 -28 -69.5 -78.5t-74.5 -103t-26 -88.5q0 -1 1 -2q0 -1 1 -2
q0 -1 1 -3q19 -24 59 -8.5t78 45.5t50 47q9 14 25 17.5t30 -5.5z" />
    <glyph glyph-name="perthousand" unicode="&#x2030;" horiz-adv-x="1304" 
d="M934 1179v0q26 -26 11.5 -52t-39.5 -50q-15 -15 -26 -28l-9 -10t-20.5 -23t-20.5 -23l-9 -10q-55 -62 -165 -174q-120 -121 -253.5 -265t-225 -272t-88.5 -203q4 -4 11 -12q9 -10 19.5 -22.5t16.5 -24.5t1 -21q-16 -15 -32.5 -5t-23.5 26q-21 57 22.5 154.5t124 213
t170.5 227t162 196.5q53 64 83 101q56 66 115 135q30 34 59 68q13 13 26 32q19 27 41 44t50 -2zM130 696v0q-33 41 -34.5 93t16.5 99q-6 61 24.5 112.5t82.5 81.5q61 31 113.5 7.5t57.5 -93.5q2 -41 -19.5 -103.5t-59.5 -120t-85 -83t-96 6.5zM234 1005v0q-22 -21 -39.5 -51
t-3.5 -54q12 -20 4.5 -37.5t-25 -24.5t-36.5 5q-4 -31 1 -66.5t32 -54.5q30 -2 54 20t40 47q20 26 43.5 88t23.5 111.5t-51 40.5q-24 -6 -43 -24zM854 481v0q17 -54 -4 -127.5t-65 -137t-95 -86.5q-61 -22 -89.5 12.5t-31.5 91t15 97.5q-6 61 25 112.5t83 81.5
q43 24 92.5 14.5t69.5 -58.5zM800 407v0q5 51 -17 63t-52.5 -4t-49.5 -49q6 2 11.5 -1t6.5 -10q1 -9 -5 -12.5t-14 -4.5q-8 -2 -14 -6q-4 -9 -5 -21t3 -19q12 -19 4.5 -37t-25 -25t-36.5 5q-4 -31 1 -66.5t32 -54.5q30 -1 53.5 20.5t40.5 46.5q52 81 66 175zM1194 481v0
q17 -54 -4.5 -127.5t-65.5 -137t-94 -86.5q-61 -22 -90 12.5t-31.5 91t15.5 97.5q-6 61 25 112.5t83 81.5q43 24 92.5 14.5t69.5 -58.5zM1140 407v0q5 51 -17 63t-52.5 -4t-49.5 -49q6 2 11.5 -1t6.5 -10q1 -9 -5 -12.5t-14 -4.5q-9 -2 -15 -6q-3 -9 -4 -21t2 -19
q13 -19 5.5 -37t-25 -25t-36.5 5q-4 -31 1 -66.5t31 -54.5q30 -1 54 20.5t41 46.5q52 81 66 175z" />
    <glyph glyph-name="circumflex" unicode="&#x2c6;" horiz-adv-x="471" 
d="M379 803v0q11 -10 11.5 -24.5t-9.5 -25.5q-10 -10 -23.5 -11t-24.5 7q-43 37 -66 88q-8 18 -13 36q-26 -19 -53 -39q-53 -40 -106 -82q-4 -2 -8 -0.5t-5.5 5t1.5 8.5q83 106 174 208q21 17 43 7t23 -36q-1 -40 14 -78q14 -37 42 -63z" />
    <glyph glyph-name="caron" unicode="&#x2c7;" horiz-adv-x="472" 
d="M377 978v0q4 3 8 1.5t5.5 -5.5t-1.5 -8q-84 -107 -175 -209q-20 -17 -42.5 -7t-23.5 37q1 39 -13 77q-14 37 -42 63q-11 10 -12 24.5t9 25.5t23.5 12t24.5 -8q44 -37 66 -88q8 -17 14 -36q26 19 52 39q54 40 107 82z" />
    <glyph glyph-name="uni02C9" unicode="&#x2c9;" horiz-adv-x="505" 
d="M404 882v0q13 -2 17 -12t-0.5 -19.5t-17.5 -10.5v0q-37 -2 -82 -4q-105 -4 -192 -10q-17 -3 -30 6.5t-16 25.5q-3 19 9 33t31 14q46 -1 101 -7q22 -2 41 -3z" />
    <glyph glyph-name="breve" unicode="&#x2d8;" horiz-adv-x="475" 
d="M384 963v0q11 -6 11 -18q-2 -33 -14 -62q-14 -39 -41 -71.5t-68 -48.5q-55 -18 -109 3q-51 23 -67 73t0 101q3 8 7 17q9 14 21.5 15t22 -8t7.5 -25v-4v-7q-1 -26 6.5 -52.5t32.5 -37.5q37 -15 74 2q62 42 92 113q3 7 10 10t15 0z" />
    <glyph glyph-name="ogonek" unicode="&#x2db;" horiz-adv-x="469" 
d="M369 -196v0q14 -10 17 -25.5t-6 -30.5q-30 -38 -70 -60q-53 -32 -117 -31t-96 62q-2 3 -3 6t-2 7q-12 65 34.5 126.5t92.5 103.5q14 13 29 27q13 11 25 23q8 6 16 3.5t11 -10.5t-3 -16l-4 -4q-26 -28 -68.5 -78.5t-74.5 -103t-27 -88.5q1 -1 1 -2q1 -1 1 -2q1 -2 2 -3
q18 -24 58 -8.5t78 45t50 47.5q10 14 25.5 17.5t30.5 -5.5z" />
    <glyph glyph-name="hungarumlaut" unicode="&#x2dd;" horiz-adv-x="531" 
d="M425 977v0q22 -11 24 -34t-17 -38q-64 -50 -119 -110q-18 -19 -35 -40q-7 -7 -15 -5t-11.5 9t2.5 16q68 84 116 181q8 16 23.5 21.5t31.5 -0.5zM257 977v0q22 -11 24 -34t-17 -38q-64 -50 -119 -110q-18 -19 -35 -40q-7 -7 -15 -5t-11.5 9t2.5 16q68 84 116 181
q8 16 23 21.5t32 -0.5z" />
    <glyph glyph-name="tilde" unicode="&#x2dc;" horiz-adv-x="479" 
d="M412 886v0q7 -13 -2 -24q-14 -18 -35 -34q-50 -34 -108 -14q-4 1 -8 3l-4 2q-15 6 -28 14q-24 13 -47.5 20t-51.5 -4q-3 -1 -6 -3q-2 0 -3 -1q-2 0 -3 -1q-3 -2 -5 -3h-2q-1 -1 -3 -2l-4 -2q-1 -1 -2 -1q-4 -3 -10 -5q-10 -4 -18 0.5t-10 14t5 17.5q1 2 3 4q6 7 14 13
q4 4 9 8l2 2q4 3 9 5q24 17 57 21h7q22 1 42 -6q28 -9 51 -23l12 -6q36 -24 76 -8q14 7 28 16q4 2 7 4q7 4 15 2t13 -9z" />
    <glyph glyph-name="ring" unicode="&#x2da;" horiz-adv-x="378" 
d="M291 954v0q27 -43 18 -92.5t-42 -85.5q-51 -52 -122 -35q-1 0 -2.5 0.5t-2.5 1.5h-1l-2 1q-10 4 -18 10q-5 3 -9 7q-1 0 -2 1q-8 7 -15 15l-4 6q-3 4 -6 9q-1 2 -2 3q-21 41 -7 86q2 6 4 13q25 56 84 75v0v0q28 17 62 17.5t59 -22.5q1 -2 2 -3q4 -4 6 -7zM162 791v0
q39 -13 70.5 11t43.5 64t-6 74l-2 4l-3 4q-2 3 -6 6q-11 9 -23 12l6 -4q4 -2 7 -5q3 -4 6 -7q13 -22 4.5 -39.5t-27.5 -23t-36 9.5q-17 2 -33 -7t-24 -24l-4 -6q-13 -36 16 -62q3 -3 6 -4l1 -1l1 -1v0h1v-0.5t1 -0.5h1z" />
    <glyph glyph-name="dotaccent" unicode="&#x2d9;" horiz-adv-x="218" 
d="M102 943v0q17 0 36.5 -25.5t19.5 -61.5t-15.5 -47.5t-33.5 -11.5t-33.5 11.5t-15.5 47.5t12 61.5t30 25.5z" />
    <glyph glyph-name="Wgrave" unicode="&#x1e80;" horiz-adv-x="1373" 
d="M1525 1497v0q16 -7 22.5 -22t0.5 -31q-9 -21 -29 -25.5t-37 9.5q-52 -25 -105 -148t-96.5 -266.5t-66.5 -231.5q-5 -19 -9 -32l-34 -128q-54 -216 -125 -427q-3 -8 -7 -17q-17 -51 -47.5 -110.5t-71.5 -76.5q-52 -12 -78 19.5t-35.5 80t-11.5 86.5q-5 107 -3 214
q1 67 0 133v21q-1 44 -6 107t-23.5 112.5t-57.5 54.5q-57 -7 -127.5 -124t-140 -284.5t-124.5 -324t-81 -241.5h-1v0q-1 -4 -2 -7v-2v0q-12 -21 -31 -23t-33.5 11t-11.5 37q27 119 55 236q33 139 63 278q4 21 11 50q19 90 45.5 227.5t44.5 278.5t12 240t-53 111
q-68 9 -117.5 -53t-79.5 -157.5t-41 -188.5t-4 -146q3 -27 -12 -41t-34 -11t-30 28q-27 100 0.5 211t78.5 199q28 49 64.5 91t88.5 67q32 15 69.5 12.5t66.5 -26.5q23 -22 36.5 -51.5t18.5 -58.5q13 -70 11.5 -138t-8.5 -137q-14 -133 -38 -264q-31 -172 -70 -343
q62 141 129.5 272t132 214.5t116.5 83.5q65 -7 94 -83t37 -188t8 -227q0 -133 10 -226t52 -98q38 6 88.5 139.5t104 326t99.5 372.5q36 138 62 232q30 112 69 222q20 57 50 110q16 30 41 55q12 11 29.5 18.5t36.5 6.5q18 -1 35 -8zM895 1470v0q6 -9 2.5 -16t-11.5 -9t-15 5
q-69 84 -154 150q-14 11 -17 27t7 31q16 19 38.5 17t33.5 -24q36 -73 84 -139q15 -22 32 -42z" />
    <glyph glyph-name="Wacute" unicode="&#x1e82;" horiz-adv-x="1373" 
d="M1525 1497v0q16 -7 22.5 -22t0.5 -31q-9 -21 -29 -25.5t-37 9.5q-52 -25 -105 -148t-96.5 -266.5t-66.5 -231.5q-5 -19 -9 -32l-34 -128q-54 -216 -125 -427q-3 -8 -7 -17q-17 -51 -47.5 -110.5t-71.5 -76.5q-52 -12 -78 19.5t-35.5 80t-11.5 86.5q-5 107 -3 214
q1 67 0 133v21q-1 44 -6 107t-23.5 112.5t-57.5 54.5q-57 -7 -127.5 -124t-140 -284.5t-124.5 -324t-81 -241.5h-1v0q-1 -4 -2 -7v-2v0q-12 -21 -31 -23t-33.5 11t-11.5 37q27 119 55 236q33 139 63 278q4 21 11 50q19 90 45.5 227.5t44.5 278.5t12 240t-53 111
q-68 9 -117.5 -53t-79.5 -157.5t-41 -188.5t-4 -146q3 -27 -12 -41t-34 -11t-30 28q-27 100 0.5 211t78.5 199q28 49 64.5 91t88.5 67q32 15 69.5 12.5t66.5 -26.5q23 -22 36.5 -51.5t18.5 -58.5q13 -70 11.5 -138t-8.5 -137q-14 -133 -38 -264q-31 -172 -70 -343
q62 141 129.5 272t132 214.5t116.5 83.5q65 -7 94 -83t37 -188t8 -227q0 -133 10 -226t52 -98q38 6 88.5 139.5t104 326t99.5 372.5q36 138 62 232q30 112 69 222q20 57 50 110q16 30 41 55q12 11 29.5 18.5t36.5 6.5q18 -1 35 -8zM931 1672v0q22 -11 24 -34t-17 -38
q-64 -50 -119 -110q-18 -19 -35 -40q-7 -8 -15 -6t-11.5 9.5t2.5 15.5q68 85 116 182q8 16 23.5 21.5t31.5 -0.5z" />
    <glyph glyph-name="Wdieresis" unicode="&#x1e84;" horiz-adv-x="1373" 
d="M1525 1497v0q16 -7 22.5 -22t0.5 -31q-9 -21 -29 -25.5t-37 9.5q-52 -25 -105 -148t-96.5 -266.5t-66.5 -231.5q-5 -19 -9 -32l-34 -128q-54 -216 -125 -427q-3 -8 -7 -17q-17 -51 -47.5 -110.5t-71.5 -76.5q-52 -12 -78 19.5t-35.5 80t-11.5 86.5q-5 107 -3 214
q1 67 0 133v21q-1 44 -6 107t-23.5 112.5t-57.5 54.5q-57 -7 -127.5 -124t-140 -284.5t-124.5 -324t-81 -241.5h-1v0q-1 -4 -2 -7v-2v0q-12 -21 -31 -23t-33.5 11t-11.5 37q27 119 55 236q33 139 63 278q4 21 11 50q19 90 45.5 227.5t44.5 278.5t12 240t-53 111
q-68 9 -117.5 -53t-79.5 -157.5t-41 -188.5t-4 -146q3 -27 -12 -41t-34 -11t-30 28q-27 100 0.5 211t78.5 199q28 49 64.5 91t88.5 67q32 15 69.5 12.5t66.5 -26.5q23 -22 36.5 -51.5t18.5 -58.5q13 -70 11.5 -138t-8.5 -137q-14 -133 -38 -264q-31 -172 -70 -343
q62 141 129.5 272t132 214.5t116.5 83.5q65 -7 94 -83t37 -188t8 -227q0 -133 10 -226t52 -98q38 6 88.5 139.5t104 326t99.5 372.5q36 138 62 232q30 112 69 222q20 57 50 110q16 30 41 55q12 11 29.5 18.5t36.5 6.5q18 -1 35 -8zM720 1620v0q18 0 37.5 -25.5t19.5 -61.5
t-16 -47.5t-34 -11.5q-17 0 -33 11.5t-16 47.5t12.5 61.5t29.5 25.5zM929 1620v0q18 0 37.5 -25.5t19.5 -61.5t-16 -47.5t-34 -11.5q-17 0 -33 11.5t-16 47.5t12 61.5t30 25.5z" />
    <glyph glyph-name="wgrave" unicode="&#x1e81;" horiz-adv-x="1024" 
d="M1069 385v0q2 -15 -7 -26t-24 -11v0q-22 0 -44 1q-94 0 -189 9.5t-181 46.5q-13 5 -24 12q-1 -28 -4 -48q-6 -68 -35 -137t-101 -90l-5 -2h-7q-69 0 -109.5 71.5t-53.5 155.5q-14 -26 -44 -84q-27 -51 -53 -100.5t-39 -69.5q-3 -5 -7 -10q-19 -32 -47.5 -63t-64.5 -33
q-3 0 -7 1q-59 12 -65.5 96.5t18 196t60 207t60.5 131.5q17 21 37.5 17.5t31 -21t-2.5 -41.5v0v0q-30 -47 -68.5 -154t-61 -215t-6.5 -158q0 -1 1 -2l1.5 -3t2.5 -2h1h1v0h1v0v0q31 6 75 80t85.5 166.5t66.5 153.5q14 33 19 44q11 20 30 23.5t35.5 -7t18.5 -33.5v-2v-1.5
v-0.5v-3.5v-2.5q-2 -56 13 -138.5t52 -121.5q6 -4 10 -5h3v0h2l2 1q49 14 72 91t26 165q-46 68 -18 163q7 17 21 17.5t25 -12.5q17 -28 23.5 -78t6.5 -103q51 -40 127 -54.5t142 -11.5q81 1 161 18q13 3 23 -3.5t14 -19.5zM416 714v0q6 -9 2.5 -16t-11.5 -9t-15 5
q-69 84 -154 150q-14 11 -17 27t7 31q16 19 38.5 17t33.5 -24q36 -73 84 -139q15 -22 32 -42z" />
    <glyph glyph-name="wacute" unicode="&#x1e83;" horiz-adv-x="1024" 
d="M1069 385v0q2 -15 -7 -26t-24 -11v0q-22 0 -44 1q-94 0 -189 9.5t-181 46.5q-13 5 -24 12q-1 -28 -4 -48q-6 -68 -35 -137t-101 -90l-5 -2h-7q-69 0 -109.5 71.5t-53.5 155.5q-14 -26 -44 -84q-27 -51 -53 -100.5t-39 -69.5q-3 -5 -7 -10q-19 -32 -47.5 -63t-64.5 -33
q-3 0 -7 1q-59 12 -65.5 96.5t18 196t60 207t60.5 131.5q17 21 37.5 17.5t31 -21t-2.5 -41.5v0v0q-30 -47 -68.5 -154t-61 -215t-6.5 -158q0 -1 1 -2l1.5 -3t2.5 -2h1h1v0h1v0v0q31 6 75 80t85.5 166.5t66.5 153.5q14 33 19 44q11 20 30 23.5t35.5 -7t18.5 -33.5v-2v-1.5
v-0.5v-3.5v-2.5q-2 -56 13 -138.5t52 -121.5q6 -4 10 -5h3v0h2l2 1q49 14 72 91t26 165q-46 68 -18 163q7 17 21 17.5t25 -12.5q17 -28 23.5 -78t6.5 -103q51 -40 127 -54.5t142 -11.5q81 1 161 18q13 3 23 -3.5t14 -19.5zM472 916v0q22 -11 24 -34t-17 -38
q-64 -50 -119 -110q-18 -19 -35 -40q-7 -8 -15 -6t-11.5 9.5t2.5 15.5q68 85 116 182q8 16 23.5 21.5t31.5 -0.5z" />
    <glyph glyph-name="wdieresis" unicode="&#x1e85;" horiz-adv-x="1024" 
d="M1069 385v0q2 -15 -7 -26t-24 -11v0q-22 0 -44 1q-94 0 -189 9.5t-181 46.5q-13 5 -24 12q-1 -28 -4 -48q-6 -68 -35 -137t-101 -90l-5 -2h-7q-69 0 -109.5 71.5t-53.5 155.5q-14 -26 -44 -84q-27 -51 -53 -100.5t-39 -69.5q-3 -5 -7 -10q-19 -32 -47.5 -63t-64.5 -33
q-3 0 -7 1q-59 12 -65.5 96.5t18 196t60 207t60.5 131.5q17 21 37.5 17.5t31 -21t-2.5 -41.5v0v0q-30 -47 -68.5 -154t-61 -215t-6.5 -158q0 -1 1 -2l1.5 -3t2.5 -2h1h1v0h1v0v0q31 6 75 80t85.5 166.5t66.5 153.5q14 33 19 44q11 20 30 23.5t35.5 -7t18.5 -33.5v-2v-1.5
v-0.5v-3.5v-2.5q-2 -56 13 -138.5t52 -121.5q6 -4 10 -5h3v0h2l2 1q49 14 72 91t26 165q-46 68 -18 163q7 17 21 17.5t25 -12.5q17 -28 23.5 -78t6.5 -103q51 -40 127 -54.5t142 -11.5q81 1 161 18q13 3 23 -3.5t14 -19.5zM271 864v0q18 0 37.5 -25.5t19.5 -61.5t-16 -47.5
t-34 -11.5q-17 0 -33 11.5t-16 47.5t12.5 61.5t29.5 25.5zM480 864v0q18 0 37.5 -25.5t19.5 -61.5t-16 -47.5t-34 -11.5q-17 0 -33 11.5t-16 47.5t12 61.5t30 25.5z" />
    <glyph glyph-name="uni01CD" unicode="&#x1cd;" horiz-adv-x="1343" 
d="M1370 500v0q4 -6 5 -13.5t-1 -13.5q-1 -4 -3 -7q-2 -2 -4 -5q-3 -2 -5 -4l-2 -1l-3 -3q-7 -3 -12 -5v0q-11 -5 -21 -0.5t-15 14.5q-2 6 -2 12q-2 0 -4 1q-30 5 -61 9q-63 6 -126 7q-59 2 -118 0q-23 -103 -36 -207q-7 -54 -7 -107q-2 -52 12 -100q6 -16 16.5 -25.5
t28.5 -5.5q27 3 39.5 -13.5t7.5 -37t-31 -28.5q-99 -4 -123 93q-12 70 1.5 156t31.5 161q3 11 5 22q11 46 23 91q-68 -2 -135 -9q-111 -10 -219 -34q-62 -13 -121 -34q-60 -20 -111 -52q-16 -8 -26.5 -0.5t-11.5 20.5t14 22v0q121 52 250 72q126 23 254 34q57 5 114 9
q21 80 43 160q67 232 115 469q1 6 3 14q7 39 15.5 99t5.5 112t-28 68q-4 1 -10.5 1.5t-11.5 -0.5l-6 -1q-3 -1 -7 -2l-4 -2q-96 -45 -217.5 -193t-243.5 -341t-221 -372t-150 -285q-100 -195 -175 -399q-11 -25 -32 -27t-35.5 13t-7.5 41q81 207 185 403t218 387
q169 286 373 549q4 4 7 8q56 71 130.5 147.5t155.5 109.5q2 0 4 1q5 2 11 3q64 9 85 -32t18.5 -99t-10.5 -100q-29 -158 -74 -312q-8 -33 -17 -65l-16 -58q-39 -147 -73 -295q120 7 240 5h14q44 0 88 -10v0q5 -1 12 -4q5 -3 9 -7l2 -2t1 -2zM1249 1807v0q4 3 8 1.5t5.5 -5.5
t-1.5 -8q-84 -106 -175 -208q-20 -17 -42.5 -7t-23.5 36q1 40 -13 78q-14 37 -42 63q-11 10 -12 24t9 26q10 10 23.5 11t24.5 -8q44 -37 66 -87q8 -18 13 -37q27 20 53 39q54 41 107 82z" />
    <glyph glyph-name="uni01CE" unicode="&#x1ce;" horiz-adv-x="1022" 
d="M1061 391v0q6 -13 0 -25t-19 -16q-29 -7 -57 -15q-68 -18 -137 -34l-10 -2q-65 -16 -131.5 -26t-133.5 -4q-98 14 -123.5 77t-9.5 151v0.5t0 -0.5q-16 -10 -30 -23v-0.5v-0.5q4 -5 8 -11q9 -15 6.5 -32t-16.5 -29q-16 -10 -33 -7.5t-29 17.5v0.5t0 -0.5q-36 -37 -71 -76
q-59 -64 -122 -127q-6 -4 -11 -10q-30 -29 -69 -53t-79 -4v0l-6 4q-32 26 -39.5 64.5t1.5 75.5q32 133 136 223q61 53 134 63t139 -43h1v0q27 24 61 42q18 10 40 10t38 -16q14 -17 13.5 -36.5t-5.5 -37.5q0 -3 -1 -5q-2 -9 -4 -20q-12 -42 -15 -88t27 -74q52 -33 136 -17
t155 40l33 11q94 28 184 69q12 5 23 1t16 -16zM206 379v0v1l87 87v0v0q-54 27 -115 -23t-103.5 -119.5t-39.5 -102.5v0v0q32 20 60 48q52 48 104 102zM484 919v0q4 3 8 1.5t5.5 -5.5t-1.5 -8q-84 -106 -175 -208q-20 -17 -42.5 -7t-23.5 36q1 40 -13 78q-14 37 -42 63
q-11 10 -12 24t9 26q10 10 23.5 11t24.5 -8q44 -37 66 -87q8 -18 13 -37q27 20 53 39q54 41 107 82z" />
    <glyph glyph-name="uni01CF" unicode="&#x1cf;" horiz-adv-x="504" 
d="M499 1481v0q13 22 33.5 23t34 -14t5.5 -40q-86 -218 -160 -439q-152 -442 -271 -895q-44 -169 -65 -342q-1 -7 -1 -14q-4 -29 -2 -57q19 -14 17.5 -37t-28.5 -34q-19 -5 -35.5 4t-22.5 28q-8 39 2 77q1 7 2 13q15 72 34 142q0 1 1 3q178 655 374 1308q-37 -49 -73 -98
q-77 -99 -147 -202q-37 -53 -66 -108q-29 -52 -39 -107q-8 -46 35 -63q15 -7 21 -21.5t0 -30.5q-7 -15 -21.5 -21.5t-30.5 -0.5q-62 28 -77 76t-0.5 102.5t41.5 103.5q66 116 146 222q42 58 85 115q117 146 208 307v0zM719 1807v0q4 3 8 1.5t5.5 -5.5t-1.5 -8
q-84 -106 -175 -208q-20 -17 -42.5 -7t-23.5 36q1 40 -13 78q-14 37 -42 63q-11 10 -12 24t9 26q10 10 23.5 11t24.5 -8q44 -37 66 -87q8 -18 13 -37q27 20 53 39q54 41 107 82z" />
    <glyph glyph-name="uni01D0" unicode="&#x1d0;" horiz-adv-x="773" 
d="M816 395v0q6 -12 1.5 -24t-16.5 -18q-256 -102 -522 -175q-15 -4 -32 -8q-54 -14 -109.5 -20.5t-97 15t-54.5 90.5q-9 96 26 185q3 8 7 19q10 30 27 53.5t49 11.5q16 -8 20.5 -24.5t-4.5 -31.5q-30 -55 -44 -141.5t17 -144.5q28 -24 97.5 -10.5t150 43.5t141.5 56
q36 15 57 23q63 23 125 51t121 61q11 5 22.5 2t17.5 -13zM308 800v0q4 3 8 1.5t5.5 -5.5t-1.5 -8q-84 -106 -175 -208q-20 -17 -42.5 -7t-23.5 36q1 40 -13 78q-14 37 -42 63q-11 10 -12 24t9 26q10 10 23.5 11t24.5 -8q44 -37 66 -87q8 -18 13 -37q27 20 53 39
q54 41 107 82z" />
    <glyph glyph-name="uni01D1" unicode="&#x1d1;" horiz-adv-x="1230" 
d="M552 1055v0v-0.5v-0.5v0v0v1v0v0zM1263 386v0q2 -12 -5 -21t-19 -12q-183 -20 -370 -19q-84 -139 -191.5 -264.5t-231.5 -206.5q-20 -12 -41 -21q-16 -7 -33 -13q-1 0 -2 -1q-6 -1 -11 -3l-15 -3q-5 -1 -11 -1q-2 -1 -4 -1h-2q-3 -1 -5 -1h-10.5h-10.5t-11 0.5t-11 0.5
h-2q-10 2 -19 3l-15 4q-29 8 -54 24l-6 4q-3 1 -5 3q-7 5 -13 10l-2 2q-10 9 -19 18q-19 21 -33 45q-33 57 -47 120.5t-16 128.5q-6 215 56 422q-57 63 -86 144q-3 7 -5 16q-2 5 -3 8q-1 5 -2 9q0 2 -1 4l-2 13q-3 13 -4 26q0 4 -0.5 10t-0.5 10q3 174 103 311.5
t253.5 222.5t317.5 101q9 1 18 1h8q3 0 6 1h19q93 0 178 -37l23 -12q116 -67 160 -173t36.5 -230t-45.5 -246.5t-85 -222.5q-16 -33 -32 -65q-29 -55 -62 -113q168 3 332 29q12 1 21.5 -5.5t11.5 -19.5zM68 765v0q19 -56 54 -103q33 95 77 186q55 113 134 211.5t190 161.5
q15 9 30.5 4.5t23.5 -19.5q6 -12 6 -26v-11q-1 -6 -2 -13q-6 -26 -16 -52q-6 -18 -11 -36q0 -2 -1 -3q0 -2 -1 -3v-3v-3v-1v0h-1q4 -26 -12.5 -38.5t-37 -8t-28.5 29.5q-1 7 -1 14v12q1 6 2 13q2 8 4 15q-105 -91 -177.5 -224t-114.5 -277q5 -4 10 -9q1 -1 3.5 -3t4.5 -4
q3 -2 5 -4q5 -4 13.5 -10.5t13.5 -10.5l12 -8q11 -8 22 -15q5 -3 14.5 -8.5t14.5 -8.5q118 -63 246 -93t261 -34q48 77 84 147q16 32 31 63q52 107 93.5 250t30 279t-117.5 222q-17 13 -36 23l-19 10q-1 0 -1 1q-9 4 -19 7q-149 47 -308.5 -3.5t-278.5 -147.5
q-91 -72 -149 -172.5t-61 -217.5q0 -3 0.5 -8t0.5 -8q1 -10 2 -21l2 -8q1 -7 2 -13l2 -8q2 -7 4 -13zM503 1178v0v0.5v0.5v0v-1v0v0v0zM288 -156v0q63 0 130.5 50.5t132 126.5t120 156.5t96.5 143.5q5 9 11 17q-132 8 -258 38.5t-244 91.5q-5 4 -15.5 10t-16.5 9
q-11 7 -22 15q-7 5 -14 9q-5 4 -14.5 11t-15.5 11l-6 6q-23 -89 -33 -170q-7 -50 -10 -131.5t8 -168t46.5 -149.5t104.5 -76zM856 1807v0q4 3 8 1.5t5.5 -5.5t-1.5 -8q-84 -106 -175 -208q-20 -17 -42.5 -7t-23.5 36q1 40 -13 78q-14 37 -42 63q-11 10 -12 24t9 26
q10 10 23.5 11t24.5 -8q44 -37 66 -87q8 -18 13 -37q27 20 53 39q54 41 107 82z" />
    <glyph glyph-name="uni01D2" unicode="&#x1d2;" horiz-adv-x="726" 
d="M778 393v0q3 -7 3 -15q-1 -14 -10 -20t-20 -3.5t-16 14.5l-3 3q-4 5 -9 10q-24 9 -52 12q-1 0 -2 1q-48 6 -98 7q-133 4 -266 -1q-8 -1 -14 -6t-7 -13q-20 -112 -101 -191q-1 -1 -3 -2l-7 -7l-28 -22q-25 -18 -57.5 -25.5t-61.5 10.5l-4 3q-4 3 -8 7q-7 7 -12 15
q-28 49 -25.5 109.5t19.5 111.5q20 68 68 123.5t122 58.5q12 0 31 -5.5t30.5 -16t1.5 -27.5v0q-5 -6 -13.5 -8.5t-13.5 3.5q-38 43 -72.5 37t-55.5 -41q-24 -42 -38 -112t-14 -118q0 -18 3 -37t11 -33q4 -7 11 -9q14 -5 42.5 14.5t55.5 61.5t37 105q1 8 -3 15t-12 10v0
q-15 5 -28.5 15t-20.5 27q-6 16 1 32.5t23 23.5q12 6 19 6q27 2 56 -12t44 -38q4 -8 13 -10q115 -23 233 -21q23 -1 45 -1h6q47 -1 95 -4q5 0 10 -1q35 0 70 -13q7 -3 14 -9t11 -14zM430 919v0q4 3 8 1.5t5.5 -5.5t-1.5 -8q-84 -106 -175 -208q-20 -17 -42.5 -7t-23.5 36
q1 40 -13 78q-14 37 -42 63q-11 10 -12 24t9 26q10 10 23.5 11t24.5 -8q44 -37 66 -87q8 -18 13 -37q27 20 53 39q54 41 107 82z" />
    <glyph glyph-name="uni01D3" unicode="&#x1d3;" horiz-adv-x="1028" 
d="M1045 1443v0q15 21 35.5 19.5t32.5 -18.5t1 -41v0v-1q-1 0 -1 -1v0l-2 -4t-3 -4q-51 -94 -131 -306t-154 -460.5t-108 -451t6 -278.5h1.5h0.5l-0.5 0.5l-0.5 0.5v0q26 -7 31 -27.5t-7.5 -37t-39.5 -13.5q-41 13 -55.5 50.5t-13.5 83.5t6 83q0 7 1 13q31 206 84 406
q68 264 150 523q-95 -176 -194 -350t-209 -341q-7 -10 -15 -21q-34 -53 -84.5 -119.5t-107 -119t-109.5 -61.5q-69 -7 -105.5 35t-44.5 106q-9 74 -1 146q15 140 49.5 275.5t77.5 267.5q56 179 135 348q15 22 35.5 21t33 -17.5t2.5 -40.5q-39 -80 -70 -164
q-63 -169 -113 -343.5t-70 -353.5q-1 -4 -1 -10q-4 -36 -6 -95.5t8.5 -107t44.5 -45.5v0h1.5h1.5v0q3 0 6 1q66 31 155.5 155t178.5 278t155 274q35 65 57 104q75 134 148 269q101 188 208 373zM903 1807v0q4 3 8 1.5t5.5 -5.5t-1.5 -8q-84 -106 -175 -208q-20 -17 -42.5 -7
t-23.5 36q1 40 -13 78q-14 37 -42 63q-11 10 -12 24t9 26q10 10 23.5 11t24.5 -8q44 -37 66 -87q8 -18 13 -37q27 20 53 39q54 41 107 82z" />
    <glyph glyph-name="uni01D4" unicode="&#x1d4;" horiz-adv-x="944" 
d="M981 399v0q7 -9 6 -20t-10 -18l-1 -1q-21 -12 -47 -27q-72 -42 -164.5 -90.5t-183 -80.5t-157.5 -25q-9 2 -18 5q-17 7 -31 19q-7 6 -12 13q-41 64 -32 158q0 5 -4.5 6.5t-7.5 -2.5q-41 -57 -88 -110q-30 -32 -69.5 -61t-87.5 -25q-2 0 -5 1h-1q-43 11 -64 50
q-26 58 -18.5 127.5t25.5 128.5q13 42 33 82q7 14 17 28t25.5 16.5t29.5 -6.5q14 -11 16.5 -26.5t-6.5 -29.5q-31 -52 -50.5 -135t-4.5 -140q1 -4 3 -7v-1q3 -7 9 -11q1 0 3 -1v0h1v0h3q55 18 119.5 96t99.5 130q31 44 60 90q10 14 25 14t25 -11t6 -28q-3 -11 -7 -23
q-25 -75 -40 -153q-7 -39 -5.5 -84t33.5 -72q5 -3 11 -6l12 -4h1q75 -8 172 32.5t189 99.5t151 107q9 7 20 5.5t19 -10.5zM536 919v0q4 3 8 1.5t5.5 -5.5t-1.5 -8q-84 -106 -175 -208q-20 -17 -42.5 -7t-23.5 36q1 40 -13 78q-14 37 -42 63q-11 10 -12 24t9 26
q10 10 23.5 11t24.5 -8q44 -37 66 -87q8 -18 13 -37q27 20 53 39q54 41 107 82z" />
    <glyph glyph-name="uni01E2" unicode="&#x1e2;" horiz-adv-x="1937" 
d="M1977 393v0q6 -14 -5 -29q-54 -53 -112 -101q-142 -118 -299 -215q-158 -97 -331 -163q-60 -22 -133 -39q-72 -16 -142 -9q-70 6 -124 52q-62 61 -59 137t45 155t99 147l14 18q4 15 8 31q2 11 5 22q11 46 23 91q-68 -2 -136 -9q-110 -10 -218 -34q-62 -13 -121 -34
q-60 -20 -112 -52q-15 -8 -26 -1q-11 8 -12 21q0 13 15 22v0q121 52 250 72q126 23 254 34q56 5 113 9l44 160q27 94 51 189q-3 7 -5 14v0v0q-1 4 -1 8q-2 11 -3 23q1 111 63 210q2 4 5 8l2 4q1 3 1 6q1 3 2 7q1 6 2 14q1 0 1 1q7 38 15 98t6 112q-3 52 -28 68q-5 1 -11 2
q-6 0 -12 -1l-5 -1l-8 -2q-1 -1 -3 -2q-97 -45 -218 -193t-243 -341t-221 -372t-151 -285q-99 -195 -175 -399q-11 -25 -31 -27q-21 -2 -36 13t-8 41q82 207 186 403q103 196 217 387q170 286 374 549l1 1l6 8q56 70 130 146q75 77 155 110h1t3 1q6 2 12 3q64 10 85 -32
q21 -41 18 -99q-2 -58 -10 -100q-5 -27 -10 -53q40 54 86 99q66 67 158 126q91 59 187 63q86 -7 113 -67q27 -59 20 -137q-8 -78 -24 -139q-5 -19 -10 -37q-2 -9 -5 -18q-4 -17 -19 -25q-14 -8 -31 -4q-22 7 -29 28q-6 21 9 39q63 77 73 177q7 65 -15 118t-92 41
q-89 -27 -196 -121q-107 -93 -185 -210q-77 -117 -76 -213l1 -5q0 -4 1 -8v-1v-1v-3q1 0 1 -1v0q21 -58 90 -103q69 -46 127 -66q22 -8 42 -12q21 -5 29 -21q7 -16 2 -33q-6 -17 -26 -24v0q-58 -16 -149 -75q-28 -18 -56 -39h44h14q44 0 87 -10v0h1q4 -1 11 -4q5 -3 10 -7
l2 -2q0 -1 1 -2q4 -6 5 -13q1 -8 -1 -14l-3 -6q-2 -3 -5 -6l-4 -4l-2 -1q-2 -1 -3 -2l-1 -1q-6 -3 -11 -5v0v0q-11 -4 -21 0t-15 14q-3 6 -2 12h-3l-1 1q-30 5 -62 9q-44 4 -88 6q-42 -32 -84 -70q-96 -85 -168 -179q-71 -94 -91 -180q-19 -87 42 -149q47 -42 113 -47
q66 -4 134 11q68 16 121 36q136 52 261 127q219 130 400 309q25 26 49 53q13 13 27 9t20 -17zM1077 815v0q-40 -147 -74 -295q51 3 102 4q67 60 141 114q22 15 45 30q-78 34 -144 89q-42 36 -65 77q-1 -4 -2 -7q-1 -6 -3 -12zM997 491v0q-9 -44 -17 -89q21 23 40 42
q24 24 49 48q-36 0 -72 -1zM1393 1674v0q13 -3 17 -12.5t-0.5 -19t-17.5 -10.5v0q-37 -2 -82 -4q-105 -4 -192 -10q-17 -3 -30 6t-16 26q-3 19 8.5 33t31.5 14q46 -1 101 -7q22 -2 41 -3z" />
    <glyph glyph-name="uni01E3" unicode="&#x1e3;" horiz-adv-x="1395" 
d="M206 379v1l87 87q-54 27 -115 -23t-103.5 -119.5t-39.5 -102.5q32 20 60 48q52 48 104 102zM746 456q-40 -33 -73 -92q38 -3 71.5 18t58.5 50q28 29 39 65q-25 5 -51 -9t-45 -32zM584 268q-6 1 -11 1q-98 14 -123.5 77t-9.5 151q-16 -10 -30 -23v-1q4 -5 8 -11
q9 -15 6.5 -32t-16.5 -29q-16 -10 -33 -7.5t-29 17.5q-36 -37 -71 -76q-59 -64 -122 -127q-6 -4 -11 -10q-30 -29 -69 -53t-79 -4l-6 4q-32 26 -39.5 64.5t1.5 75.5q32 133 136 223q61 53 134 63t139 -43h1q27 24 61 42q18 10 40 10t38 -16q14 -17 13.5 -36.5t-5.5 -37.5
q0 -3 -1 -5q-2 -9 -4 -20q-12 -42 -15 -88t27 -74q30 -19 69 -22l1 1q1 76 45.5 150.5t111 117.5t133.5 23q5 -2 9 -4q2 -1 4.5 -2t4.5 -2l1 -1q19 -11 27 -32.5t5 -42.5q-9 -46 -37.5 -85.5t-64.5 -67.5q-49 -41 -113 -52q-32 -5 -64 4q-3 -25 9.5 -63.5t42.5 -57.5
q62 -29 152 -10t181.5 59.5t157.5 74.5q10 6 20 11q93 46 178 103q13 8 26.5 5.5t22.5 -14.5q8 -14 4 -29t-18 -22q-21 -9 -46 -21q-99 -47 -237 -103t-269.5 -83.5t-211.5 11.5q-6 4 -13 8q-57 44 -61 111zM845 786v0q13 -3 17 -12.5t-0.5 -19t-17.5 -10.5v0q-37 -2 -82 -4
q-105 -4 -192 -10q-17 -3 -30 6t-16 26q-3 19 8.5 33t31.5 14q46 -1 101 -7q22 -2 41 -3z" />
    <glyph glyph-name="Gcaron" unicode="&#x1e6;" horiz-adv-x="1678" 
d="M1680 380v0q12 -1 20 -9t8 -19q-1 -13 -10 -21t-22 -7q-111 14 -223 -3q-23 -4 -46 -9q-56 -202 -126 -372q-46 -113 -115 -244t-158 -245.5t-197 -176.5q-54 -29 -113.5 -32t-114.5 30q-11 7 -22 15q-4 3 -7 7q-46 48 -51.5 113.5t12.5 132t43 120.5q63 134 157 247.5
t209 205.5q195 156 435 225q23 83 41 166q13 56 23.5 146.5t5 184.5t-41 159.5t-114.5 72.5q-52 -5 -102.5 -42t-101.5 -89q43 -93 67 -192q4 -17 -4 -30.5t-25 -18.5q-18 -4 -32.5 5.5t-17.5 27.5v0q-14 94 -39 163q-15 -15 -28 -27l-8 -8q-118 -117 -229 -239
q-120 -133 -248 -259l-14 -12q-51 -50 -123 -106t-149 -80t-143 24l-14 12q-47 51 -54.5 116t9.5 132t43 123q83 179 237.5 339.5t338.5 232.5q134 46 238.5 3.5t172.5 -162.5q50 42 104.5 73.5t106.5 36.5q3 1 6 1h3q3 0 6 -1h2q99 -8 144 -81.5t52 -164.5
q10 -114 -5.5 -239t-47.5 -252l28 6q115 22 234 21zM947 893v0q6 6 14 13q17 16 38 34q-76 141 -212 143.5t-284 -96.5t-260 -260q-38 -54 -79.5 -132t-63.5 -160t-2 -147q8 -19 22 -33q2 -3 5 -6q1 0 2 -1l2 -2l6 -4q32 -17 76.5 -1t86.5 45t70 51l2 2q181 154 347 328
q112 116 230 226zM1005 -430v0q227 336 342 728q-246 -73 -436.5 -251.5t-292.5 -412.5q-17 -40 -36.5 -110t-22 -135t33.5 -90q72 -39 152.5 8.5t150.5 126.5t109 136zM1007 1475v0q4 3 8 1.5t5.5 -5.5t-1.5 -8q-84 -106 -175 -208q-20 -17 -42.5 -7t-23.5 36q1 40 -13 78
q-14 37 -42 63q-11 10 -12 24t9 26q10 10 23.5 11t24.5 -8q44 -37 66 -87q8 -18 13 -37q27 20 53 39q54 41 107 82z" />
    <glyph glyph-name="gcaron" unicode="&#x1e7;" horiz-adv-x="1042" 
d="M1055 412v0q23 -2 30 -18.5t-1 -32t-30 -17.5h-1q-79 17 -160 3q-93 -18 -174 -68.5t-147 -119.5q-1 -1 -1 -2q-63 -252 -142.5 -499.5t-182.5 -485.5q-34 -77 -78 -150q-18 -28 -44.5 -53.5t-63.5 -15.5q-29 13 -36 42t-6 57q4 86 23 169q59 261 178 500.5t302 435.5
q0 1 1 2q14 51 37 157.5t34.5 208.5t-12.5 141v0v0h-1q0 1 -1 1h-1q-23 4 -53.5 -18t-59 -52.5t-46.5 -50.5q-1 -2 -0.5 -4t2.5 -3q38 -19 72 -43q20 -17 16.5 -37.5t-21.5 -31t-41 2.5q-40 27 -84 43q-3 1 -5 -1q-32 -39 -71 -84.5t-72 -83.5q-3 -4 -7 -8
q-50 -60 -109 -115q0 -1 -1 -1q-18 -17 -40.5 -32t-49.5 -17q-7 -1 -14 0q-55 16 -59 69t11 98q36 111 120 191q119 110 277 77q2 0 4 2q46 44 97 84q33 27 73 48q19 10 42 14t44 -8q4 -2 7 -5q35 -36 32.5 -115.5t-12.5 -138.5q-1 -9 -2 -17q-17 -98 -39 -196
q0 -3 2.5 -4.5t5.5 0.5q94 86 211 136t247 46zM3 217v0v0v0v0zM262 481v0v0v0q2 2 0.5 5t-4.5 2q-56 -6 -101.5 -38t-78.5 -80q-42 -60 -56 -132q0 -3 2.5 -4.5t4.5 0.5q35 28 66 62l3 3q53 56 103 114q30 34 61 68zM74 -981v0v0v0zM367 -347v0q69 198 126 399q1 3 -0.5 4.5
t-3.5 1.5t-4 -2q-90 -124 -157 -262t-122 -281q-58 -151 -94 -307q-20 -80 -23 -160q0 -4 3 -5t5 2q48 67 83 144q3 6 6 13q101 221 181 453zM522 959v0q4 3 8 1.5t5.5 -5.5t-1.5 -8q-84 -106 -175 -208q-20 -17 -42.5 -7t-23.5 36q1 40 -13 78q-14 37 -42 63q-11 10 -12 24
t9 26q10 10 23.5 11t24.5 -8q44 -37 66 -87q8 -18 13 -37q27 20 53 39q54 41 107 82z" />
    <glyph glyph-name="uni01E8" unicode="&#x1e8;" horiz-adv-x="1149" 
d="M451 1419v0v0q0 -1 1 -1v0v0q-1 0 -1 1zM1611 1367v0q7 -24 -4 -44.5t-35 -28.5q-217 -62 -425 -154q-208 -88 -410 -190t-382 -237q-49 -185 -91 -366q-17 -78 -34 -157q168 -102 379.5 -162t363.5 -39q12 3 40.5 15t56.5 25.5t37 19.5q9 5 18.5 -0.5t17.5 -16.5t15 -20
q0 -1 1 -2q9 -15 6 -30.5t-17 -25.5q-24 -14 -48 -20q-71 -16 -143 -11.5t-143 17.5q-135 25 -293 81.5t-295 146.5q-33 -157 -50 -315q-2 -17 -14 -27t-29 -9q-18 2 -28.5 16t-7.5 32v0q35 170 76 340q-109 83 -167 189q-14 53 40 121t128.5 131t123.5 99q8 6 13 10
q1 1 2 1l1 1q12 46 23 92q51 195 92 393q2 12 5 25q15 71 18 142v5v2v2v0v0v0v-1v1v0q-1 0 -1 0.5v0.5v1v0v-1v0q-7 25 7 40t34.5 14t32.5 -24q2 -4 3 -8l1 -4v0q0 -3 0.5 -6.5t0.5 -6.5q1 -9 0 -17q-4 -41 -13 -80q-28 -120 -60 -238l-16 -58q-31 -112 -62 -227
q347 242 728 424q210 102 432 176q23 7 43.5 -3.5t28.5 -33.5zM178 225v0q43 172 88 344l24 92q-85 -70 -135 -122t-74.5 -87t-31.5 -52l-7 -17q25 -79 136 -158zM1029 1807v0q4 3 8 1.5t5.5 -5.5t-1.5 -8q-84 -106 -175 -208q-20 -17 -42.5 -7t-23.5 36q1 40 -13 78
q-14 37 -42 63q-11 10 -12 24t9 26q10 10 23.5 11t24.5 -8q44 -37 66 -87q8 -18 13 -37q27 20 53 39q54 41 107 82z" />
    <glyph glyph-name="uni01E9" unicode="&#x1e9;" horiz-adv-x="840" 
d="M853 384v0q21 -1 28.5 -17.5t-0.5 -34.5q-8 -15 -22 -24t-28 -15q-64 -29 -224 -58.5t-333 -45.5t-276 -4q-11 -60 -21 -120q-20 -121 -30 -243.5t0 -244.5q0 -18 -12.5 -25.5t-26 -2.5t-16.5 24q-2 127 11.5 250.5t33.5 247.5q10 62 21 123q-8 3 -14 6q-33 21 -22 52
t31 58q3 4 5 7q15 22 31 42q70 344 176 679q46 150 112 293l4 8q22 48 59 99t92 56q31 -3 41.5 -25t0 -44t-41.5 -25l2 1l-1 -0.5t-4 -1.5q-28 -21 -49 -55q-64 -101 -109 -214q-137 -340 -220 -699v1l1 1q66 75 139 142l8 6q53 52 120 87q21 10 46.5 9t43.5 -22
q13 -21 5.5 -38.5t-25.5 -24t-37 7.5q-63 -22 -160.5 -114.5t-170.5 -186.5l-20 -98q99 -10 271.5 15t332 65.5t217.5 77.5q2 11 11 18t20 7zM697 1796v0q4 3 8 1.5t5.5 -5.5t-1.5 -8q-84 -106 -175 -208q-20 -17 -42.5 -7t-23.5 36q1 40 -13 78q-14 37 -42 63
q-11 10 -12 24t9 26q10 10 23.5 11t24.5 -8q44 -37 66 -87q8 -18 13 -37q27 20 53 39q54 41 107 82z" />
    <glyph glyph-name="uni01EA" unicode="&#x1ea;" horiz-adv-x="1230" 
d="M68 765q19 -56 54 -103q33 95 77 186q55 113 134 211.5t190 161.5q15 9 30.5 4.5t23.5 -19.5q6 -12 6 -26v-11q-1 -6 -2 -13q-6 -26 -16 -52q-6 -18 -11 -36q0 -2 -1 -3q0 -2 -1 -3v-7h-1q4 -26 -12.5 -38.5t-37 -8t-28.5 29.5q-1 7 -1 14v12q1 6 2 13q2 8 4 15
q-105 -91 -177.5 -224t-114.5 -277q5 -4 10 -9q1 -1 3.5 -3t4.5 -4q3 -2 5 -4q5 -4 13.5 -10.5t13.5 -10.5l12 -8q11 -8 22 -15q5 -3 14.5 -8.5t14.5 -8.5q118 -63 246 -93t261 -34q48 77 84 147q16 32 31 63q52 107 93.5 250t30 279t-117.5 222q-17 13 -36 23l-19 10
q-1 0 -1 1q-9 4 -19 7q-149 47 -308.5 -3.5t-278.5 -147.5q-91 -72 -149 -172.5t-61 -217.5q0 -3 0.5 -8t0.5 -8q1 -10 2 -21l2 -8q1 -7 2 -13l2 -8q2 -7 4 -13zM288 -156q63 0 130.5 50.5t132 126.5t120 156.5t96.5 143.5q5 9 11 17q-132 8 -258 38.5t-244 91.5
q-5 4 -15.5 10t-16.5 9q-11 7 -22 15q-7 5 -14 9q-5 4 -14.5 11t-15.5 11l-6 6q-23 -89 -33 -170q-7 -50 -10 -131.5t8 -168t46.5 -149.5t104.5 -76zM337 -179h-4q-2 -1 -4 -1h-2q-3 -1 -5 -1h-21q-4 0 -11 0.5t-11 0.5h-2q-10 2 -19 3l-15 4q-29 8 -54 24l-6 4q-3 1 -5 3
q-7 5 -13 10l-2 2q-10 9 -19 18q-19 21 -33 45q-33 57 -47 120.5t-16 128.5q-6 215 56 422q-57 63 -86 144q-3 7 -5 16q-2 5 -3 8l-2 9q0 2 -1 4l-2 13q-3 13 -4 26q0 4 -0.5 10t-0.5 10q3 174 103 311.5t253.5 222.5t317.5 101q9 1 18 1h8q3 0 6 1h19q93 0 178 -37l23 -12
q116 -67 160 -173t36.5 -230t-45.5 -246.5t-85 -222.5q-16 -33 -32 -65q-29 -55 -62 -113q168 3 332 29q12 1 21.5 -5.5t11.5 -19.5q2 -12 -5 -21t-19 -12q-183 -20 -370 -19q-84 -139 -191.5 -264.5t-231.5 -206.5q-20 -12 -41 -21q-9 -4 -18 -7q3 -7 -3 -16q-2 -1 -4 -4
q-27 -28 -69.5 -78.5t-74.5 -103t-26 -88.5q0 -1 1 -2q0 -1 1 -2q0 -1 1 -3q19 -24 59 -8.5t78 45.5t50 47q9 14 25 17.5t30 -5.5q14 -10 17.5 -25.5t-5.5 -29.5q-31 -39 -71 -61q-53 -32 -117 -31t-96 62l-2 6q-1 4 -2 7q-13 65 33.5 126.5t92.5 103.5q15 13 30 27z" />
    <glyph glyph-name="uni01EB" unicode="&#x1eb;" horiz-adv-x="726" 
d="M73 132q-24 -1 -47 13l-4 3q-4 3 -8 7q-7 7 -12 15q-28 49 -25.5 109.5t19.5 111.5q20 68 68 123.5t122 58.5q12 0 31 -5.5t30.5 -16t1.5 -27.5q-5 -6 -13.5 -8.5t-13.5 3.5q-38 43 -72.5 37t-55.5 -41q-24 -42 -38 -112t-14 -118q0 -18 3 -37t11 -33q4 -7 11 -9
q14 -5 42.5 14.5t55.5 61.5t37 105q1 8 -3 15t-12 10q-15 5 -28.5 15t-20.5 27q-6 16 1 32.5t23 23.5q12 6 19 6q27 2 56 -12t44 -38q4 -8 13 -10q115 -23 233 -21q23 -1 45 -1h6q47 -1 95 -4q5 0 10 -1q35 0 70 -13q7 -3 14 -9t11 -14q3 -7 3 -15q-1 -14 -10 -20t-20 -3.5
t-16 14.5l-3 3q-4 5 -9 10q-24 9 -52 12q-1 0 -2 1q-48 6 -98 7q-133 4 -266 -1q-8 -1 -14 -6t-7 -13q-20 -112 -101 -191q-1 -1 -3 -2l-7 -7l-28 -22q-9 -7 -20 -12q3 -7 -3 -16q-2 -1 -4 -4q-27 -28 -69.5 -78.5t-74.5 -103t-26 -88.5q0 -1 1 -2q0 -1 1 -2q0 -1 1 -3
q19 -24 59 -8.5t78 45.5t50 47q9 14 25 17.5t30 -5.5q14 -10 17.5 -25.5t-5.5 -29.5q-31 -39 -71 -61q-53 -32 -117 -31t-96 62l-2 6q-1 4 -2 7q-13 65 33.5 126.5t92.5 103.5q15 13 30 27z" />
    </font>
</defs>
</svg>
